<?xml version="1.0" standalone="no"?>
<!DOCTYPE svg PUBLIC "-//W3C//DTD SVG 1.1//EN" "http://www.w3.org/Graphics/SVG/1.1/DTD/svg11.dtd" >
<svg xmlns="http://www.w3.org/2000/svg">
<metadata>Generated by IcoMoon</metadata>
<defs>
<font id="sw-glyph" horiz-adv-x="1024">
<font-face units-per-em="1024" ascent="960" descent="-64" />
<missing-glyph horiz-adv-x="1024" />
<glyph unicode="&#x20;" horiz-adv-x="512" d="" />
<glyph unicode="&#xe600;" glyph-name="geo-tools" d="M325.504 584.064c-79.36-226.176-224.32-648.064-224.32-648.064s222.656 255.872 383.296 441.92c-90.816 105.408-138.624 162.048-142.528 168.768-6.848 11.968-12.224 24.576-16.448 37.376zM922.816-64c0 0-264.896 770.624-274.56 787.456-20.736 36.032-53.824 60.16-90.752 71.168v119.808c0 25.216-20.352 45.568-45.504 45.568-25.216 0-45.504-20.352-45.504-45.568v-120.384c-10.752-3.392-21.248-7.68-31.296-13.568-74.624-43.072-100.16-138.432-57.152-212.992 9.792-16.832 544.768-631.488 544.768-631.488zM512 707.904c40.192 0 72.768-32.64 72.768-72.832s-32.576-72.768-72.768-72.768-72.768 32.576-72.768 72.832c0 40.192 32.576 72.768 72.768 72.768z" />
<glyph unicode="&#xe601;" glyph-name="iris-icon" d="M896 896v-896h-768v896h768zM960 960h-896v-1024h896v1024zM256 768h192v-64h-192v64zM576 768h192v-64h-192v64zM256 576h192v-64h-192v64zM576 576h192v-64h-192v64zM256 384h192v-64h-192v64zM576 384h192v-64h-192v64zM256 192h512v-64h-512v64z" />
<glyph unicode="&#xe602;" glyph-name="gpx_marker" d="M512 928c-164.224 0-297.6-133.248-297.6-297.664 0-164.224 297.6-694.336 297.6-694.336s297.6 530.112 297.6 694.336c0 164.416-133.312 297.664-297.6 297.664z" />
<glyph unicode="&#xe603;" glyph-name="fft" d="M1008 272c0-176.731-143.269-320-320-320s-320 143.269-320 320c0 176.731 143.269 320 320 320s320-143.269 320-320zM652.928 654.272c-15.424 162.24-150.528 289.728-316.928 289.728-176.768 0-320-143.296-320-320 0-166.272 127.424-301.504 289.728-316.928 16.704 184.064 163.136 330.496 347.2 347.2z" />
<glyph unicode="&#xe604;" glyph-name="globally_significant_folder" d="M363.072 405.376h127.552v85.312h-115.904c-6.464-27.328-10.432-55.872-11.648-85.312zM412.928 179.776c14.336-24.064 31.232-43.264 48.832-55.744 9.472-6.656 19.264-11.456 28.864-14.208v124.864h-103.36c6.976-20.032 15.68-38.464 25.664-54.912zM374.72 277.312h115.904v85.312h-127.552c1.216-29.44 5.184-57.984 11.648-85.312zM412.928 588.224c-9.984-16.512-18.688-34.88-25.664-54.912h103.36v124.864c-9.6-2.752-19.392-7.488-28.864-14.208-17.6-12.48-34.496-31.68-48.832-55.744zM331.008 490.688h-75.008c-11.456-27.264-18.24-55.872-20.544-85.312h84.992c1.216 29.696 4.8 58.304 10.56 85.312zM611.136 588.224c-14.4 24.064-31.232 43.264-48.896 55.744-9.472 6.656-19.264 11.456-28.864 14.208v-124.864h103.36c-6.976 20.032-15.616 38.464-25.6 54.912zM392.384 634.24c-28.224-13.568-54.016-31.68-76.352-54.208-14.336-14.336-26.944-29.952-37.76-46.72h64c12.352 39.232 29.44 73.536 50.112 100.928zM278.272 234.688c10.816-16.832 23.424-32.448 37.76-46.72 22.4-22.528 48.128-40.64 76.352-54.208-20.672 27.392-37.76 61.696-50.112 100.928h-64zM320.448 362.624h-84.992c2.304-29.44 9.152-58.048 20.544-85.312h75.008c-5.76 27.008-9.344 55.616-10.56 85.312zM631.68 634.24c20.672-27.392 37.696-61.696 50.048-100.928h64.064c-10.88 16.832-23.424 32.448-37.824 46.72-22.336 22.528-48.064 40.64-76.288 54.208zM703.616 405.376h84.992c-2.368 29.44-9.216 58.048-20.608 85.312h-75.008c5.76-27.008 9.408-55.616 10.624-85.312zM692.992 277.312h75.008c11.456 27.264 18.24 55.872 20.608 85.312h-84.992c-1.216-29.696-4.864-58.304-10.624-85.312zM448 768l-128 128h-320v-896h1024v768h-576zM512 64c-176.64 0-320 143.296-320 320s143.36 320 320 320 320-143.296 320-320-143.36-320-320-320zM649.28 490.688h-115.904v-85.312h127.552c-1.216 29.44-5.184 57.984-11.648 85.312zM631.68 133.76c28.16 13.568 53.952 31.68 76.288 54.208 14.4 14.336 26.944 29.952 37.824 46.72h-64.064c-12.352-39.232-29.376-73.536-50.048-100.928zM660.928 362.624h-127.552v-85.312h115.904c6.464 27.328 10.432 55.872 11.648 85.312zM533.376 234.688v-124.864c9.6 2.752 19.392 7.488 28.864 14.208 17.6 12.48 34.496 31.68 48.896 55.744 9.984 16.512 18.624 34.88 25.6 54.912h-103.36z" />
<glyph unicode="&#xe605;" glyph-name="STC_folder" d="M639.936 588.8h-255.872c-113.088 0-204.8-91.84-204.8-204.8s91.776-204.8 204.8-204.8h255.872c113.088 0 204.8 91.84 204.8 204.8s-91.712 204.8-204.8 204.8zM639.936 230.464h-255.872c-84.864 0-153.664 68.672-153.664 153.536s68.8 153.536 153.664 153.536h255.872c84.864 0 153.6-68.672 153.6-153.536s-68.736-153.536-153.6-153.536zM448 768l-128 128h-320v-896h1024v768h-576zM639.936 128h-255.872c-141.504 0-256.064 114.624-256.064 256s114.56 256 256.064 256h255.872c141.504 0 256.064-114.624 256.064-256s-114.56-256-256.064-256z" />
<glyph unicode="&#xe606;" glyph-name="correlated_enemy_and_unknown_folder" d="M512.021 184.061l-199.979 200.007 200.053 200.024 199.979-200.007-200.053-200.024zM448 768l-128 128h-320v-896h1024v768h-576zM512 64l-320 320 320 320 320-320-320-320z" />
<glyph unicode="&#xe607;" glyph-name="friendly_and_neutral_non_org_folder" d="M448 768l-128 128h-320v-896h1024v768h-576zM832 241.28l-132.928 132.864-354.432-310.144-132.928 132.928 354.432 310.144-132.864 132.928h398.72v-398.72z" />
<glyph unicode="&#xe608;" glyph-name="uncorrelated_enemy_and_unknown_folder" d="M448 768l-128 128h-320v-896h1024v768h-576zM512 64l-320 320 320 320 320-320-320-320z" />
<glyph unicode="&#xe609;" glyph-name="friendly_and_neutral_org_folder" d="M448 768l-128 128h-320v-896h1024v768h-576zM832 192h-640v384h640v-384z" />
<glyph unicode="&#xe60a;" glyph-name="tactical" d="M704 960h-576v-1024h768v832l-192 192zM704 192h-384v64h384v-64zM704 320h-384v64h384v-64zM704 448h-384v64h384v-64zM704 576h-384v64h384v-64z" />
<glyph unicode="&#xe60b;" glyph-name="new-folder" d="M1024 256h-128v128h-128v-128h-128v-128h128v-128h128v128h128zM512 192c0 176.768 143.232 320 320 320 45.568 0 88.768-9.856 128-27.008v283.008h-448l-128 128h-320v-768h454.464c-4.224 20.672-6.464 42.048-6.464 64z" />
<glyph unicode="&#xe60c;" glyph-name="smart_layer_folder" d="M712.256 640.704c-54.912 15.040-126.144 23.296-200.256 23.296-74.048 0-145.344-8.256-200.256-23.296-24.832-6.848-45.76-14.976-60.608-23.36-9.984-5.632-15.296-10.496-17.792-13.376 2.496-2.88 7.808-7.68 17.792-13.312 14.848-8.384 35.84-16.512 60.608-23.424 54.912-14.912 126.208-23.232 200.256-23.232 74.112 0 145.344 8.32 200.256 23.296 24.832 6.848 45.76 14.976 60.672 23.424 9.984 5.632 15.232 10.432 17.728 13.312-2.496 2.88-7.744 7.68-17.728 13.312-14.912 8.384-35.84 16.512-60.672 23.36zM448 768l-128 128h-320v-896h1024v768h-576zM832 544l-240-240v-200c0-22.080-35.904-40-80-40-44.032 0-80 17.92-80 40v200l-240 240v59.968c0 55.232 143.36 100.032 320 100.032s320-44.8 320-100.032v-59.968z" />
<glyph unicode="&#xe60d;" glyph-name="radius" d="M512 928c-265.152 0-480-214.912-480-480 0-265.152 214.848-480 480-480s480 214.848 480 480c0 265.088-214.848 480-480 480zM512 64c-211.776 0-384 172.224-384 384s172.224 384 384 384c189.888 0 347.648-138.688 378.24-320h-378.24v-128h378.24c-30.592-181.312-188.352-320-378.24-320z" />
<glyph unicode="&#xe60e;" glyph-name="level-up" d="M576 960l256-256h-192v-448h-128v448h-192zM704 512v-320h-256v320l-128 128h-256v-704h896v576z" />
<glyph unicode="&#xe60f;" glyph-name="shared-template" d="M300.8 339.2c25.6 0 44.8 6.4 64 19.2l185.6-108.8c0-6.4 0-12.8 0-19.2 0-57.6 44.8-108.8 108.8-108.8 57.6 0 108.8 44.8 108.8 108.8 0 57.6-44.8 108.8-108.8 108.8-25.6 0-44.8-6.4-64-19.2l-185.6 108.8c0 6.4 0 12.8 0 19.2s0 12.8 0 19.2l185.6 108.8c19.2-12.8 38.4-19.2 64-19.2 57.6 0 108.8 44.8 108.8 108.8 0 57.6-44.8 108.8-108.8 108.8-57.6 0-108.8-44.8-108.8-108.8 0-6.4 0-12.8 0-19.2l-185.6-108.8c-19.2 12.8-38.4 19.2-64 19.2-57.6 0-108.8-44.8-108.8-108.8 0-57.6 44.8-108.8 108.8-108.8zM64 960v-1024h832v1024h-832zM832 0h-704v896h704v-896z" />
<glyph unicode="&#xe610;" glyph-name="editable-template" d="M256 320v-192h192zM832 448v-448h-704v896h704v-64h64v128h-832v-1024h832v512zM832 768v0l-64 64-448-448 192-192 448 448-64 64z" />
<glyph unicode="&#xe611;" glyph-name="export" d="M736 736l-96-96 128-128h-576v-128h576l-128-128 96-96 288 288zM512 0v320h-64v-256h-384v768h384v-256h64v320h-512v-896z" />
<glyph unicode="&#xe612;" glyph-name="import" d="M544 736l-96-96 128-128h-576v-128h576l-128-128 96-96 288 288zM128 896v-320h64v256h768v-768h-768v256h-64v-320h896v896z" />
<glyph unicode="&#xe613;" glyph-name="paste" d="M704 640v256h-704v-832h320v-128h640v704h-256zM896 0h-512v576h512v-576z" />
<glyph unicode="&#xe614;" glyph-name="copy" d="M256 576h384v-64h-384v64zM256 448h384v-64h-384v64zM256 320h384v-64h-384v64zM256 192h384v-64h-384v64zM768 960h-576v-128h-128v-896h768v128h128v704l-192 192zM768 0h-640v768h486.4l153.6-153.6v-614.4zM896 128h-64v512l-192 192h-384v64h486.4l153.6-153.6v-614.4z" />
<glyph unicode="&#xe615;" glyph-name="move" d="M1024 448l-192 192v-128h-256v256h128l-192 192-192-192h128v-256h-256v128l-192-192 192-192v128h256v-256h-128l192-192 192 192h-128v256h256v-128z" />
<glyph unicode="&#xe616;" glyph-name="two-arrows-left" d="M768 128l64 64-256 256 256 256-64 64-320-320zM512 128l64 64-256 256 256 256-64 64-320-320z" />
<glyph unicode="&#xe617;" glyph-name="two-arrows-right" d="M256 768l-64-64 256-256-256-256 64-64 320 320zM512 768l-64-64 256-256-256-256 64-64 320 320z" />
<glyph unicode="&#xe618;" glyph-name="two-arrows-down" d="M832 704l-64 64-256-256-256 256-64-64 320-320zM832 448l-64 64-256-256-256 256-64-64 320-320z" />
<glyph unicode="&#xe619;" glyph-name="two-arrows-up" d="M192 192l64-64 256 256 256-256 64 64-320 320zM192 448l64-64 256 256 256-256 64 64-320 320z" />
<glyph unicode="&#xe61a;" glyph-name="padlock-open" d="M640 512h-320v108.8c0 108.8 83.2 192 192 192 102.4 0 179.2-76.8 192-172.8h121.6c-6.4 160-140.8 294.4-307.2 294.4-172.8 0-307.2-140.8-307.2-307.2v-108.8h-76.8v-576h768v576h-262.4zM563.2 96h-108.8l19.2 160c-19.2 12.8-32 32-32 57.6 0 38.4 32 70.4 70.4 70.4s70.4-32 70.4-70.4c0-25.6-12.8-44.8-32-57.6l12.8-160z" />
<glyph unicode="&#xe61b;" glyph-name="warning" d="M512 960l-512-1024h1024l-512 1024zM576 64h-128v128h128v-128zM448 256v384h128v-384h-128z" />
<glyph unicode="&#xe61c;" glyph-name="info2" d="M518.4 947.2c-275.2 0-499.2-198.4-499.2-441.6 0-96 32-179.2 89.6-256l-102.4-294.4 300.8 147.2c64-25.6 140.8-44.8 211.2-44.8 275.2 0 499.2 198.4 499.2 441.6s-224 448-499.2 448zM576 192h-128v384h128v-384zM576 640h-128v128h128v-128z" />
<glyph unicode="&#xe61d;" glyph-name="error" d="M768 960h-512l-256-256v-512l256-256h512l256 256v512l-256 256zM832 256l-128-128-192 192-192-192-128 128 192 192-192 192 128 128 192-192 192 192 128-128-192-192 192-192z" />
<glyph unicode="&#xe61e;" glyph-name="message-template-active" d="M192 512h640v-64h-640v64zM192 384h640v-64h-640v64zM192 256h640v-64h-640v64zM0 832v-768h1024v768h-1024zM960 128h-896v512h896v-512z" />
<glyph unicode="&#xe61f;" glyph-name="message-template-inactive" d="M0 832v-768h1024v768h-1024zM960 128h-896v512h896v-512z" />
<glyph unicode="&#xe620;" glyph-name="schema-deleted" d="M934.4 729.6l-102.4 102.4h-832v-761.6h1017.6v576l-83.2 83.2zM806.4 768l32-32-326.4-243.2-371.2 281.6h665.6zM64 742.4l396.8-294.4-396.8-294.4v588.8zM140.8 128l371.2 281.6 371.2-281.6h-742.4zM563.2 448l320 243.2 76.8-76.8v-460.8l-396.8 294.4z" />
<glyph unicode="&#xe621;" glyph-name="schema-inactive" d="M832 832h-832v-768h1024v576l-192 192zM960 128h-896v640h742.4l153.6-153.6v-486.4z" />
<glyph unicode="&#xe622;" glyph-name="hidden" d="M73.352 63.812l823.63 823.63 54.305-54.305-823.63-823.63-54.305 54.305zM217.6 300.8c-57.6 38.4-102.4 83.2-134.4 115.2 70.4 76.8 236.8 224 428.8 224-108.8 0-192-83.2-192-192 0-12.8 0-25.6 6.4-44.8l288 288c-32 6.4-64 12.8-102.4 12.8-281.6 0-512-288-512-288s70.4-83.2 172.8-160l44.8 44.8zM512 256c108.8 0 192 83.2 192 192 0 12.8 0 25.6-6.4 44.8l-230.4-230.4c19.2-6.4 32-6.4 44.8-6.4zM812.8 601.6l-44.8-44.8c76.8-44.8 134.4-102.4 172.8-140.8-70.4-76.8-236.8-224-428.8-224-32 0-64 6.4-96 12.8l-51.2-51.2c44.8-12.8 96-25.6 147.2-25.6 281.6 0 512 288 512 288s-83.2 102.4-211.2 185.6z" />
<glyph unicode="&#xe623;" glyph-name="default-choice-favourite" d="M256 128c0 179.2 140.8 320 320 320 89.6 0 166.4-32 224-89.6l160 89.6-896 512v-1024l204.8 115.2c-6.4 25.6-12.8 51.2-12.8 76.8zM768 192h-128v128h-128v-128h-128v-128h128v-128h128v128h128z" />
<glyph unicode="&#xe624;" glyph-name="default-choice" d="M64 960l896-512-896-512z" />
<glyph unicode="&#xe625;" glyph-name="breadcrumb-divider-right" d="M256 748.8v-601.6l512 300.8z" />
<glyph unicode="&#xe626;" glyph-name="schema-active" d="M832 832h-832v-768h1024v576l-192 192zM960 128h-896v640h742.4l153.6-153.6v-486.4zM192 576h640v-64h-640v64zM192 448h640v-64h-640v64zM192 320h640v-64h-640v64z" />
<glyph unicode="&#xe627;" glyph-name="headquarters" d="M64 960h128v-1024h-128v1024zM256 960h704v-512h-704v512z" />
<glyph unicode="&#xe628;" glyph-name="task-org-editor" d="M832 256v192h-320v128h128v320h-320v-320h128v-128h-320v-192h-128v-320h320v320h-128v128h576v-128h-128v-320h320v320h-128zM896 0h-192v192h192v-192z" />
<glyph unicode="&#xe629;" glyph-name="plan-overview" d="M0 960v-1024h1024v1024h-1024zM960 0h-896v768h896v-768zM192 576h640v-64h-640v64zM192 448h640v-64h-640v64zM192 320h640v-64h-640v64zM192 192h640v-64h-640v64z" />
<glyph unicode="&#xe62a;" glyph-name="plan-browser" d="M0 192h256v-256h-256v256zM384 576h256v-256h-256v256zM384 192h256v-256h-256v256zM0 576h256v-256h-256v256zM384 960h256v-256h-256v256zM768 576h256v-256h-256v256zM768 192h256v-256h-256v256zM768 960h256v-256h-256v256zM0 960h256v-256h-256v256z" />
<glyph unicode="&#xe62b;" glyph-name="area-of-sight" d="M512 672c-108.8 0-192-83.2-192-192s83.2-192 192-192c108.8 0 192 83.2 192 192s-83.2 192-192 192zM556.8 448c-44.8 0-83.2 38.4-83.2 83.2s38.4 83.2 83.2 83.2 83.2-38.4 83.2-83.2-38.4-83.2-83.2-83.2zM0 960v-1024h1024v1024h-1024zM940.8 448c-70.4-76.8-236.8-224-428.8-224s-358.4 147.2-428.8 224c70.4 76.8 236.8 224 428.8 224s358.4-147.2 428.8-224z" />
<glyph unicode="&#xe62c;" glyph-name="line-of-sight" d="M512 736c185.6 0 358.4-147.2 428.8-224-70.4-76.8-236.8-224-428.8-224-185.6 0-358.4 147.2-428.8 224 70.4 76.8 243.2 224 428.8 224zM512 800c-281.6 0-512-288-512-288s230.4-288 512-288 512 288 512 288-230.4 288-512 288v0zM512 736c-108.8 0-192-83.2-192-192s83.2-192 192-192c108.8 0 192 83.2 192 192s-83.2 192-192 192zM556.8 512c-44.8 0-83.2 38.4-83.2 83.2s38.4 83.2 83.2 83.2 83.2-38.4 83.2-83.2-38.4-83.2-83.2-83.2zM0 128h1024v-128h-1024v128z" />
<glyph unicode="&#xe62d;" glyph-name="highest-point" d="M0 64l256 512 128-192 256 448 384-768z" />
<glyph unicode="&#xe62e;" glyph-name="arrow-left-slim" d="M640 128l64 64-256 256 256 256-64 64-320-320z" />
<glyph unicode="&#xe62f;" glyph-name="arrow-right-slim" d="M384 768l-64-64 256-256-256-256 64-64 320 320z" />
<glyph unicode="&#xe630;" glyph-name="arrow-down-slim" d="M832 576l-64 64-256-256-256 256-64-64 320-320z" />
<glyph unicode="&#xe631;" glyph-name="arrow-up-slim" d="M192 320l64-64 256 256 256-256 64 64-320 320z" />
<glyph unicode="&#xe632;" glyph-name="menu" d="M128 256h768v-128h-768v128zM128 512h768v-128h-768v128zM128 768h768v-128h-768v128z" />
<glyph unicode="&#xe633;" glyph-name="increase-indent" d="M0 896h1024v-64h-1024v64zM0 768h1024v-64h-1024v64zM0 128h1024v-64h-1024v64zM0 0h1024v-64h-1024v64zM384 576h640v-64h-640v64zM384 448h640v-64h-640v64zM384 320h640v-64h-640v64zM0 576v-320l256 160z" />
<glyph unicode="&#xe634;" glyph-name="decrease-indent" d="M0 896h1024v-64h-1024v64zM0 768h1024v-64h-1024v64zM0 128h1024v-64h-1024v64zM0 0h1024v-64h-1024v64zM384 576h640v-64h-640v64zM384 448h640v-64h-640v64zM384 320h640v-64h-640v64zM256 576v-320l-256 160z" />
<glyph unicode="&#xe635;" glyph-name="numbering" d="M320 768h704v-64h-704v64zM320 448h704v-64h-704v64zM320 128h704v-64h-704v64zM140.8 640h-57.6v198.4h-57.6v44.8l115.2 19.2v-262.4zM198.4 320h-179.2v38.4l83.2 89.6c12.8 12.8 19.2 25.6 25.6 32s6.4 19.2 6.4 25.6c0 12.8 0 19.2-6.4 25.6s-12.8 6.4-25.6 6.4c-6.4 0-19.2-6.4-19.2-12.8-6.4-6.4-6.4-19.2-6.4-32h-57.6c0 25.6 6.4 44.8 25.6 64s38.4 25.6 64 25.6c25.6 0 51.2-6.4 64-19.2 19.2-12.8 25.6-32 25.6-57.6 0-19.2-6.4-32-12.8-44.8s-25.6-32-44.8-57.6l-32-38.4h102.4v-44.8zM70.4 153.6h25.6c12.8 0 19.2 0 25.6 6.4s6.4 12.8 6.4 25.6c0 6.4 0 12.8-6.4 19.2s-12.8 6.4-25.6 6.4c-6.4 0-12.8 0-19.2-6.4s-6.4-12.8-6.4-19.2h-57.6c0 19.2 6.4 38.4 25.6 51.2s38.4 19.2 64 19.2c25.6 0 51.2-6.4 70.4-19.2s25.6-32 25.6-57.6c0-12.8-6.4-25.6-12.8-32-6.4-12.8-19.2-19.2-32-25.6 12.8-6.4 25.6-12.8 32-25.6s12.8-25.6 12.8-38.4c0-25.6-6.4-44.8-25.6-57.6s-38.4-19.2-70.4-19.2c-25.6 0-44.8 6.4-64 19.2s-25.6 32-25.6 57.6v0h57.6c0-6.4 6.4-12.8 12.8-19.2s12.8-6.4 25.6-6.4c12.8 0 19.2 0 25.6 6.4s6.4 12.8 6.4 25.6c0 12.8-6.4 19.2-12.8 25.6s-12.8 6.4-25.6 6.4h-25.6v57.6z" />
<glyph unicode="&#xe636;" glyph-name="bullets" d="M0 832h192v-192h-192v192zM0 512h192v-192h-192v192zM0 192h192v-192h-192v192zM320 768h704v-64h-704v64zM320 448h704v-64h-704v64zM320 128h704v-64h-704v64z" />
<glyph unicode="&#xe637;" glyph-name="underline" d="M768 832v-422.4c0-70.4-25.6-128-70.4-166.4s-108.8-57.6-185.6-57.6c-76.8 0-140.8 19.2-185.6 57.6s-70.4 96-70.4 166.4v422.4h128v-422.4c0-44.8 12.8-70.4 32-96s51.2-32 89.6-32c38.4 0 70.4 12.8 96 32s32 51.2 32 96v422.4h134.4zM192 128h640v-64h-640v64z" />
<glyph unicode="&#xe638;" glyph-name="italic" d="M755.2 704l12.8 64h-384l-12.8-64h128l-102.4-512h-128l-12.8-64h384l12.8 64h-128l102.4 512z" />
<glyph unicode="&#xe639;" glyph-name="bold" d="M256 128v640h217.6c76.8 0 140.8-12.8 185.6-44.8s64-70.4 64-134.4c0-32-6.4-57.6-19.2-83.2s-38.4-44.8-64-51.2c38.4-6.4 64-25.6 83.2-51.2s25.6-57.6 25.6-89.6c0-64-19.2-108.8-64-140.8s-102.4-44.8-179.2-44.8h-249.6zM403.2 499.2h76.8c32 0 57.6 6.4 76.8 19.2s25.6 32 25.6 57.6c0 25.6-6.4 44.8-25.6 57.6s-44.8 19.2-76.8 19.2h-70.4v-153.6zM403.2 403.2v-160h102.4c32 0 57.6 6.4 70.4 19.2s25.6 32 25.6 57.6c0 25.6-6.4 51.2-19.2 64s-38.4 19.2-64 19.2h-115.2z" />
<glyph unicode="&#xe63a;" glyph-name="arrow-back" d="M448 832l96-96-224-224h640v-128h-640l224-224-96-96-384 384z" />
<glyph unicode="&#xe63b;" glyph-name="expand-collapse" d="M384 320h-320l128-128-128-128 64-64 128 128 128-128zM640 320h320l-128-128 128-128-64-64-128 128-128-128zM384 576h-320l128 128-128 128 64 64 128-128 128 128zM640 576h320l-128 128 128 128-64 64-128-128-128 128z" />
<glyph unicode="&#xe63c;" glyph-name="rename" d="M128 576h384v-256h-384v256zM576 256h-512v384h512v64h-576v-512h576zM1024 192v512h-256v128h128v128h-384v-128h128v-768h-128v-128h384v128h-128v128h256zM960 640v-384h-192v384h192z" />
<glyph unicode="&#xe63d;" glyph-name="media" d="M704 960h-576v-1024h768v832l-192 192zM320 192v448l390.4-224-390.4-224z" />
<glyph unicode="&#xe63e;" glyph-name="pdf" d="M460.8 582.4v-262.4h44.8c25.6 0 44.8 6.4 57.6 25.6s19.2 44.8 19.2 70.4v64c0 32-6.4 51.2-19.2 70.4s-32 25.6-57.6 25.6h-44.8zM896 704v64l-192 192h-576v-256h-128v-512h128v-256h768v256h128v512h-128zM192 896h486.4l153.6-153.6v-38.4h-640v192zM659.2 480v-64c0-44.8-12.8-83.2-44.8-115.2s-64-44.8-108.8-44.8h-121.6v384h121.6c44.8 0 76.8-12.8 108.8-44.8s44.8-70.4 44.8-115.2zM134.4 256h-70.4v384h140.8c38.4 0 70.4-12.8 96-32s32-51.2 32-89.6-12.8-64-32-89.6c-25.6-19.2-57.6-32-96-32h-70.4v-140.8zM832 0h-640v192h640v-192zM960 582.4h-172.8v-108.8h147.2v-57.6h-147.2v-160h-70.4v384h243.2v-57.6zM249.6 473.6c12.8 12.8 12.8 25.6 12.8 44.8s-6.4 32-12.8 44.8c-12.8 12.8-25.6 19.2-44.8 19.2h-70.4v-128h70.4c19.2 0 38.4 6.4 44.8 19.2z" />
<glyph unicode="&#xe63f;" glyph-name="powerpoint" d="M0 832v-768l576-128v1024l-576-128zM384 428.8c-25.6-19.2-57.6-32-102.4-32h-76.8v-140.8h-76.8v384h153.6c44.8 0 76.8-12.8 102.4-32 25.6-25.6 38.4-51.2 38.4-89.6s-12.8-64-38.4-89.6zM281.6 582.4h-76.8v-128h76.8c19.2 0 38.4 6.4 51.2 19.2s19.2 25.6 19.2 44.8c0 19.2-6.4 32-19.2 44.8s-32 19.2-51.2 19.2zM992 832h-352v-160c25.6 19.2 57.6 32 96 32v-160h160c0-89.6-70.4-160-160-160-38.4 0-70.4 12.8-96 32v-160h256v-64h-256v-128h352c19.2 0 32 12.8 32 32v697.6c0 25.6-12.8 38.4-32 38.4zM768 576v160c89.6 0 160-70.4 160-160h-160z" />
<glyph unicode="&#xe640;" glyph-name="excel" d="M992 832h-352v-128h128v-64h-128v-64h128v-64h-128v-64h128v-64h-128v-64h128v-64h-128v-192h352c19.2 0 32 12.8 32 32v697.6c0 25.6-12.8 38.4-32 38.4zM960 256h-128v64h128v-64zM960 384h-128v64h128v-64zM960 512h-128v64h128v-64zM960 640h-128v64h128v-64zM0 832v-768l576-128v1024l-576-128zM364.8 256l-76.8 140.8-76.8-140.8h-89.6l115.2 192-115.2 192h89.6l70.4-134.4 70.4 134.4h89.6l-115.2-192 121.6-192h-83.2z" />
<glyph unicode="&#xe641;" glyph-name="word" d="M992 832h-352v-128h256v-64h-256v-64h256v-64h-256v-64h256v-64h-256v-64h256v-64h-256v-192h352c19.2 0 32 12.8 32 32v697.6c0 25.6-12.8 38.4-32 38.4zM0 832v-768l576-128v1024l-576-128zM428.8 256h-70.4l-70.4 256-70.4-256h-70.4l-89.6 384h70.4l51.2-262.4 70.4 262.4h57.6l70.4-262.4 51.2 262.4h70.4l-70.4-384z" />
<glyph unicode="&#xe642;" glyph-name="send" d="M0 960l1024-512-1024-512v448l640 64-640 64z" />
<glyph unicode="&#xe643;" glyph-name="labels" d="M576 960l-576-576 448-448 576 576v448h-448zM768 576c-70.4 0-128 57.6-128 128s57.6 128 128 128 128-57.6 128-128-57.6-128-128-128z" />
<glyph unicode="&#xe644;" glyph-name="multi-select" d="M704 384l192 64-192 64v448h-704v-704h448l64-192 64 192 320-320 128 128-320 320zM64 320v576h576v-364.8l-320 108.8 108.8-320h-364.8z" />
<glyph unicode="&#xe645;" glyph-name="plan-properties" d="M652.8 448c0-77.762-63.038-140.8-140.8-140.8s-140.8 63.038-140.8 140.8c0 77.762 63.038 140.8 140.8 140.8s140.8-63.038 140.8-140.8zM768 960h-704v-1024h896v832l-192 192zM832 352c-6.4-19.2-12.8-44.8-25.6-64-38.4 12.8-76.8-6.4-102.4-32s-38.4-64-25.6-102.4c-19.2-12.8-38.4-19.2-64-25.6-19.2 38.4-57.6 64-102.4 64s-76.8-25.6-102.4-64c-19.2 6.4-44.8 12.8-64 25.6 12.8 38.4 0 76.8-25.6 102.4s-64 38.4-102.4 25.6c-12.8 19.2-19.2 38.4-25.6 64 38.4 19.2 64 57.6 64 102.4 0 38.4-25.6 70.4-64 96 6.4 19.2 12.8 44.8 25.6 64 38.4-12.8 76.8 6.4 102.4 32s38.4 64 25.6 102.4c19.2 12.8 38.4 19.2 64 25.6 19.2-38.4 57.6-64 102.4-64s76.8 25.6 102.4 64c19.2-6.4 44.8-12.8 64-25.6-12.8-38.4 0-76.8 25.6-102.4s64-44.8 102.4-32c12.8-19.2 19.2-38.4 25.6-64-38.4-19.2-64-51.2-64-96 0-38.4 25.6-70.4 64-96z" />
<glyph unicode="&#xe646;" glyph-name="radio-signal" d="M627.2 448c0-63.623-51.577-115.2-115.2-115.2s-115.2 51.577-115.2 115.2c0 63.623 51.577 115.2 115.2 115.2s115.2-51.577 115.2-115.2zM864 96c89.6 89.6 147.2 211.2 147.2 352s-57.6 262.4-147.2 352l-70.4-70.4c70.4-70.4 115.2-172.8 115.2-281.6s-44.8-211.2-115.2-281.6l70.4-70.4zM230.4 166.4c-70.4 70.4-115.2 172.8-115.2 281.6s44.8 211.2 115.2 281.6l-70.4 70.4c-89.6-89.6-147.2-211.2-147.2-352s57.6-262.4 147.2-352l70.4 70.4zM729.6 230.4c57.6 57.6 89.6 128 89.6 217.6s-32 160-89.6 217.6l-70.4-70.4c38.4-38.4 64-89.6 64-147.2s-25.6-108.8-64-147.2l70.4-70.4zM364.8 300.8c-38.4 38.4-64 89.6-64 147.2s25.6 108.8 64 147.2l-70.4 70.4c-57.6-57.6-89.6-128-89.6-217.6s32-160 89.6-217.6l70.4 70.4z" />
<glyph unicode="&#xe647;" glyph-name="redo" d="M1024 512l-448 384v-256c0 0-576 0-576-576 0 0 217.6 320 576 320v-256l448 384z" />
<glyph unicode="&#xe648;" glyph-name="undo" d="M0 512l448 384v-256c0 0 576 0 576-576 0 0-217.6 320-576 320v-256l-448 384z" />
<glyph unicode="&#xe649;" glyph-name="deploy" d="M512 601.6v0c19.2 76.8 0 166.4-64 224-57.6 57.6-140.8 76.8-217.6 57.6l128-128-32-128-121.6-32-128 128c-19.2-76.8 0-160 57.6-217.6 64-64 153.6-83.2 230.4-57.6v0l422.4-422.4c19.2-19.2 44.8-32 76.8-32 25.6 0 51.2 12.8 76.8 32 38.4 44.8 38.4 108.8 0 153.6l-428.8 422.4zM864 51.2c-19.2 0-38.4 19.2-38.4 38.4 0 25.6 19.2 38.4 38.4 38.4 25.6 0 38.4-19.2 38.4-38.4s-19.2-38.4-38.4-38.4z" />
<glyph unicode="&#xe64a;" glyph-name="link" d="M256 320h-128v256h320c0 70.4-57.6 128-128 128h-192c-70.4 0-128-57.6-128-128v-256c0-70.4 57.6-128 128-128h192c70.4 0 128 57.6 128 128h-192zM768 576h128v-256h-320c0-70.4 57.6-128 128-128h192c70.4 0 128 57.6 128 128v256c0 70.4-57.6 128-128 128h-192c-70.4 0-128-57.6-128-128h192zM256 512h512v-128h-512v128z" />
<glyph unicode="&#xe64b;" glyph-name="envelope-radio" d="M640 448c0-63.623-51.577-115.2-115.2-115.2s-115.2 51.577-115.2 115.2c0 63.623 51.577 115.2 115.2 115.2s115.2-51.577 115.2-115.2zM876.8 96c89.6 89.6 147.2 211.2 147.2 352s-57.6 262.4-147.2 352l-70.4-70.4c70.4-70.4 115.2-172.8 115.2-281.6s-44.8-211.2-115.2-281.6l70.4-70.4zM742.4 230.4c57.6 57.6 89.6 128 89.6 217.6s-32 160-89.6 217.6l-70.4-70.4c38.4-38.4 64-89.6 64-147.2s-25.6-108.8-64-147.2l70.4-70.4zM524.8 640c19.2 0 32 0 51.2-6.4l198.4 204.8h-774.4v-128l339.2-211.2c25.6 76.8 96 140.8 185.6 140.8zM582.4 262.4c-19.2-6.4-38.4-6.4-57.6-6.4-89.6 0-160 57.6-185.6 140.8l-345.6 217.6v-544h787.2l-198.4 192z" />
<glyph unicode="&#xe64c;" glyph-name="chatroom-radio" d="M640 480c0-63.623-51.577-115.2-115.2-115.2s-115.2 51.577-115.2 115.2c0 63.623 51.577 115.2 115.2 115.2s115.2-51.577 115.2-115.2zM876.8 128c89.6 89.6 147.2 211.2 147.2 352s-57.6 262.4-147.2 352l-70.4-70.4c70.4-70.4 115.2-172.8 115.2-281.6s-44.8-211.2-115.2-281.6l70.4-70.4zM742.4 262.4c57.6 57.6 89.6 128 89.6 217.6s-32 160-89.6 217.6l-70.4-70.4c38.4-38.4 64-89.6 64-147.2s-25.6-108.8-64-147.2l70.4-70.4zM582.4 294.4c-19.2-6.4-38.4-6.4-57.6-6.4-108.8 0-192 83.2-192 192s83.2 192 192 192c19.2 0 32 0 51.2-6.4l198.4 198.4c-76.8 44.8-166.4 70.4-262.4 70.4-275.2 0-499.2-198.4-499.2-441.6 0-96 32-179.2 89.6-256l-102.4-294.4 300.8 147.2c64-25.6 140.8-44.8 211.2-44.8 96 0 185.6 25.6 262.4 70.4l-192 179.2z" />
<glyph unicode="&#xe64d;" glyph-name="plan-layer" d="M896 384l-384-256-384 256-121.6-83.2 499.2-364.8 512 364.8zM512 960l-505.6-364.8 499.2-364.8 512 364.8z" />
<glyph unicode="&#xe64e;" glyph-name="sheet" d="M704 960h-576v-1024h768v832l-192 192zM832 0h-640v896h486.4l153.6-153.6v-742.4z" />
<glyph unicode="&#xe64f;" glyph-name="breadcrumb-divider-left" d="M704 147.2v595.2l-512-294.4z" />
<glyph unicode="&#xe650;" glyph-name="read-only" d="M64 192l192-192h-192zM127.286 769.601l63.356 63.356 705.969-705.969-63.356-63.356-705.969 705.969zM959.893 700.957l-289.628-289.628-190.068 190.068 289.628 289.628 190.068-190.068zM127.779 258.721l221.747 221.747 190.068-190.068-221.747-221.747-190.068 190.068z" />
<glyph unicode="&#xe651;" glyph-name="drag" d="M960 896h-768v-128h64v64h640v-640h-64v-64h128zM256 768h-192v-768h768v768h-576zM768 128v-64h-640v640h640v-576z" />
<glyph unicode="&#xe652;" glyph-name="holdings" d="M0-64h1024v256h-1024v-256zM960 128v-128h-384v128h384zM0 320h1024v256h-1024v-256zM960 512v-128h-192v128h192zM0 960v-256h1024v256h-1024zM960 768h-640v128h640v-128z" />
<glyph unicode="&#xe653;" glyph-name="check-button" d="M960 0h-896v896h704v64h-768v-1024h1024v448h-64v-384zM371.2 576l-115.2-115.2 268.8-268.8 499.2 499.2-115.2 115.2-384-384-153.6 153.6z" />
<glyph unicode="&#xe654;" glyph-name="dial-up-network" d="M972.8 512h51.2c0 121.6-44.8 230.4-134.4 313.6-83.2 83.2-198.4 134.4-313.6 134.4v-51.2c102.4 0 204.8-38.4 281.6-115.2s115.2-179.2 115.2-281.6zM576 838.4v-51.2c70.4 0 140.8-25.6 192-76.8s76.8-121.6 76.8-192h51.2c0 83.2-32 166.4-96 230.4-57.6 57.6-140.8 89.6-224 89.6zM678.4 614.4c25.6-25.6 44.8-64 44.8-102.4h51.2c0 51.2-19.2 102.4-57.6 140.8s-89.6 57.6-140.8 57.6v-51.2c38.4 0 76.8-19.2 102.4-44.8zM960 192c0-12.8 0-25.6-12.8-38.4l-128-128c-6.4-6.4-12.8-12.8-19.2-19.2s-19.2-6.4-25.6-6.4c0 0 0 0-6.4 0 0 0-6.4 0-12.8 0-12.8 0-32 0-57.6 6.4s-57.6 12.8-96 32c-38.4 19.2-83.2 38.4-134.4 70.4s-102.4 76.8-160 134.4c-44.8 44.8-83.2 83.2-108.8 128-32 38.4-51.2 76.8-70.4 108.8s-32 64-38.4 89.6c-6.4 25.6-12.8 51.2-19.2 70.4 0 19.2-6.4 38.4-6.4 44.8s0 19.2 0 19.2c0 6.4 6.4 19.2 6.4 25.6 6.4 6.4 12.8 19.2 19.2 19.2l128 128c6.4 6.4 19.2 12.8 32 12.8 6.4 0 12.8 0 19.2-6.4s12.8-12.8 19.2-19.2l102.4-192c6.4-12.8 6.4-19.2 6.4-32s-6.4-19.2-19.2-32l-44.8-44.8c0 0 0-6.4-6.4-6.4 0 0 0-6.4 0-6.4 0-12.8 6.4-25.6 19.2-44.8 6.4-12.8 19.2-32 32-57.6 12.8-19.2 38.4-44.8 70.4-76.8 25.6-32 51.2-51.2 76.8-70.4 19.2-19.2 38.4-25.6 57.6-38.4 12.8-6.4 25.6-12.8 32-12.8h12.8c0 0 6.4 0 6.4 0s6.4 0 6.4 6.4l51.2 57.6c12.8 12.8 25.6 12.8 38.4 12.8s19.2 0 25.6-6.4v0l185.6-108.8c6.4 0 19.2-6.4 19.2-19.2z" />
<glyph unicode="&#xe655;" glyph-name="network" d="M972.8 512h51.2c0 121.6-44.8 230.4-134.4 313.6-83.2 83.2-198.4 134.4-313.6 134.4v-51.2c102.4 0 204.8-38.4 281.6-115.2s115.2-179.2 115.2-281.6zM576 838.4v-51.2c70.4 0 140.8-25.6 192-76.8s76.8-121.6 76.8-192h51.2c0 83.2-32 166.4-96 230.4-57.6 57.6-140.8 89.6-224 89.6zM678.4 614.4c25.6-25.6 44.8-64 44.8-102.4h51.2c0 51.2-19.2 102.4-57.6 140.8s-89.6 57.6-140.8 57.6v-51.2c38.4 0 76.8-19.2 102.4-44.8zM531.2 576h-19.2v51.2c0 6.4-6.4 12.8-12.8 12.8h-38.4c-6.4 0-12.8-6.4-12.8-12.8v-51.2h-96v12.8c0 19.2-12.8 44.8-32 51.2v288c0 12.8-6.4 32-32 32s-32-19.2-32-32v-288c-19.2-6.4-32-32-32-51.2v-12.8h-51.2c-25.6 0-44.8-19.2-44.8-44.8v-550.4c0-25.6 19.2-44.8 44.8-44.8h358.4c25.6 0 44.8 19.2 44.8 44.8v550.4c0 25.6-19.2 44.8-44.8 44.8zM236.8 249.6c25.6 32 70.4 51.2 115.2 51.2s83.2-19.2 115.2-51.2h-230.4zM486.4 217.6c6.4-12.8 12.8-32 12.8-44.8h-300.8c0 19.2 6.4 32 12.8 44.8h275.2zM230.4 288c-19.2 0-32 12.8-32 32s12.8 32 32 32c19.2 0 32-12.8 32-32s-12.8-32-32-32zM352-6.4c-44.8 0-89.6 19.2-121.6 57.6h236.8c-25.6-32-70.4-57.6-115.2-57.6zM492.8 83.2h-281.6c-6.4 19.2-12.8 32-12.8 51.2h307.2c0-19.2-6.4-32-12.8-51.2zM512 396.8c0-6.4-6.4-12.8-12.8-12.8h-300.8c-6.4 0-12.8 6.4-12.8 12.8v108.8c0 6.4 6.4 12.8 12.8 12.8h300.8c6.4 0 12.8-6.4 12.8-12.8v-108.8z" />
<glyph unicode="&#xe656;" glyph-name="tablet" d="M960 832h-896c-38.4 0-64-25.6-64-64v-576c0-38.4 25.6-64 64-64h364.8c-12.8 25.6-57.6 89.6-76.8 128h-224v448h768v-448h-12.8v-102.4c0 0 0-12.8 0-25.6h76.8c38.4 0 64 25.6 64 64v576c0 38.4-25.6 64-64 64zM960 448c-19.2 0-32 12.8-32 32s12.8 32 32 32c19.2 0 32-12.8 32-32s-12.8-32-32-32zM800 473.6v0c-25.6 0-44.8-19.2-44.8-38.4v-32h-6.4v32c0 19.2-19.2 38.4-38.4 38.4h-6.4c-19.2 0-38.4-19.2-38.4-38.4v-32h-6.4v32c0 19.2-19.2 38.4-38.4 38.4h-6.4c-19.2 0-38.4-19.2-38.4-38.4v-32 217.6c0 19.2-19.2 38.4-38.4 38.4h-6.4c-19.2 0-38.4-19.2-38.4-38.4v-332.8c-12.8 12.8-19.2 25.6-25.6 32-19.2 25.6-32 44.8-51.2 44.8-19.2 6.4-32 0-44.8-12.8-6.4-12.8-6.4-32 0-44.8 19.2-38.4 121.6-217.6 121.6-217.6 6.4-19.2 44.8-83.2 160-83.2v0c83.2 0 128 38.4 147.2 76.8s19.2 70.4 19.2 76.8v281.6c19.2 12.8 0 32-19.2 32z" />
<glyph unicode="&#xe657;" glyph-name="mobile" d="M691.2 960h-428.8c-38.4 0-76.8-32-76.8-76.8v-876.8c0-38.4 32-76.8 76.8-76.8h428.8c38.4 0 76.8 32 76.8 76.8v876.8c0 44.8-32 76.8-76.8 76.8zM377.6 915.2h211.2c6.4 0 12.8-6.4 12.8-19.2s-6.4-19.2-12.8-19.2h-211.2c-6.4 0-12.8 6.4-12.8 19.2s6.4 19.2 12.8 19.2zM480 12.8c-25.6 0-44.8 19.2-44.8 44.8s19.2 44.8 44.8 44.8c25.6 0 44.8-19.2 44.8-44.8 6.4-25.6-19.2-44.8-44.8-44.8zM704 192h-448v640h448v-640z" />
<glyph unicode="&#xe658;" glyph-name="task-manager" d="M512 832c211.2 0 384-172.8 384-384s-172.8-384-384-384-384 172.8-384 384 172.8 384 384 384zM512 928c-262.4 0-480-217.6-480-480s217.6-480 480-480 480 217.6 480 480-217.6 480-480 480v0zM576 486.4v281.6h-128v-352l313.6-185.6 64 115.2z" />
<glyph unicode="&#xe659;" glyph-name="list-view" d="M960 896v-896h-896v896h896zM1024 960h-1024v-1024h1024v1024zM64 768h896v-64h-896v64zM64 576h896v-64h-896v64zM64 384h896v-64h-896v64zM64 192h896v-64h-896v64z" />
<glyph unicode="&#xe65a;" glyph-name="graphical-view" d="M896 640h-832c-38.4 0-64 25.6-64 64v192c0 38.4 25.6 64 64 64h832c38.4 0 64-25.6 64-64v-192c0-38.4-25.6-64-64-64zM384 256h-320c-38.4 0-64 25.6-64 64v192c0 38.4 25.6 64 64 64h320c38.4 0 64-25.6 64-64v-192c0-38.4-25.6-64-64-64zM128-64h-64c-38.4 0-64 32-64 64v128c0 38.4 25.6 64 64 64h64c38.4 0 64-25.6 64-64v-128c0-32-25.6-64-64-64zM384-64h-64c-38.4 0-64 32-64 64v128c0 38.4 25.6 64 64 64h64c38.4 0 64-25.6 64-64v-128c0-32-25.6-64-64-64zM640-64h-64c-38.4 0-64 32-64 64v128c0 38.4 25.6 64 64 64h64c38.4 0 64-25.6 64-64v-128c0-32-25.6-64-64-64zM896-64h-64c-38.4 0-64 32-64 64v128c0 38.4 25.6 64 64 64h64c38.4 0 64-25.6 64-64v-128c0-32-25.6-64-64-64zM896 256h-320c-38.4 0-64 25.6-64 64v192c0 38.4 25.6 64 64 64h320c38.4 0 64-25.6 64-64v-192c0-38.4-25.6-64-64-64z" />
<glyph unicode="&#xe65b;" glyph-name="send-template-to-all" d="M576 960h-576v-1024h576v64h-512v768h512zM1024 576l-320 256v-192h-512v-128h512v-256h-512v-128h512v-192l320 256-243.2 192z" />
<glyph unicode="&#xe65c;" glyph-name="send-template" d="M576 832h-576v-768h576v64h-512v512h512zM704 640l320-256-320-256v192h-512v128h512v64z" />
<glyph unicode="&#xe65d;" glyph-name="fire-support" d="M0 960v-1024h128v256h896v768h-1024zM512 448c-70.4 0-128 57.6-128 128s57.6 128 128 128 128-57.6 128-128-57.6-128-128-128z" />
<glyph unicode="&#xe65e;" glyph-name="status" d="M736 896h128v-64c0 0 0-128-128-128v192zM736 576h128v-64c0 0 0-128-128-128v192zM736 256h128v-64c0 0 0-128-128-128v192zM288 896h-128v-64c0 0 0-128 128-128v192zM288 576h-128v-64c0 0 0-128 128-128v192zM288 256h-128v-64c0 0 0-128 128-128v192zM320 960v-1024h384v1024h-384zM512 64c-51.2 0-96 44.8-96 96s44.8 96 96 96 96-44.8 96-96-44.8-96-96-96zM512 352c-51.2 0-96 44.8-96 96s44.8 96 96 96 96-44.8 96-96-44.8-96-96-96zM512 640c-51.2 0-96 44.8-96 96s44.8 96 96 96 96-44.8 96-96-44.8-96-96-96z" />
<glyph unicode="&#xe65f;" glyph-name="aggregated-layer" d="M960 832v-768h-896v768h896zM1024 896h-1024v-896h1024v896zM576 384c0-106.039-85.961-192-192-192s-192 85.961-192 192c0 106.039 85.961 192 192 192s192-85.961 192-192zM640 704c-64 0-121.6-32-160-83.2 96-38.4 160-128 160-236.8 0-19.2-6.4-44.8-6.4-64 0 0 6.4 0 6.4 0 108.8 0 192 83.2 192 192s-83.2 192-192 192z" />
<glyph unicode="&#xe660;" glyph-name="centre" d="M512 960c-281.6 0-512-230.4-512-512s230.4-512 512-512 512 230.4 512 512-230.4 512-512 512zM512 32c-230.4 0-416 185.6-416 416 0 96 32 192 89.6 262.4l262.4-262.4-128-128h320v320l-128-128-262.4 262.4c70.4 57.6 160 89.6 262.4 89.6 230.4 0 416-185.6 416-416s-185.6-416-416-416z" />
<glyph unicode="&#xe661;" glyph-name="expand" d="M960 896h-320l128-128-128-128 64-64 128 128 128-128zM64 896h320l-128-128 128-128-64-64-128 128-128-128zM960 0h-320l128 128-128 128 64 64 128-128 128 128zM64 0h320l-128 128 128 128-64 64-128-128-128 128z" />
<glyph unicode="&#xe662;" glyph-name="history-trails" d="M512 960c-281.6 0-512-230.4-512-512s230.4-512 512-512 512 230.4 512 512-230.4 512-512 512zM512 320l-256-192 256 704 256-704-256 192z" />
<glyph unicode="&#xe663;" glyph-name="sync" d="M512 960c-262.4 0-473.6-198.4-505.6-448h128c32 179.2 185.6 320 377.6 320 140.8 0 262.4-76.8 326.4-185.6l-134.4-134.4h320v320l-89.6-89.6c-96 134.4-249.6 217.6-422.4 217.6zM512-64c262.4 0 473.6 198.4 505.6 448h-128c-32-179.2-185.6-320-377.6-320-140.8 0-262.4 76.8-326.4 185.6l134.4 134.4h-320v-320l89.6 89.6c96-128 249.6-217.6 422.4-217.6z" />
<glyph unicode="&#xe664;" glyph-name="matrix" d="M0 960v-1024h1024v1024h-1024zM768 896v-128h-128v128h128zM448 576v128h128v-128h-128zM384 512v-128h-128v128h128zM384 320v-128h-128v128h128zM448 320h128v-128h-128v128zM640 384v128h128v-128h-128zM640 576v128h128v-128h-128zM576 896v-128h-128v128h128zM384 896v-128h-128v128h128zM64 704h128v-128h-128v128zM64 512h128v-128h-128v128zM64 320h128v-128h-128v128zM64 0v128h128v-128h-128zM256 0v128h128v-128h-128zM448 0v128h128v-128h-128zM640 0v128h128v-128h-128zM960 192h-128v128h128v-128zM960 384h-128v128h128v-128zM960 576h-128v128h128v-128zM960 768h-128v128h128v-128z" />
<glyph unicode="&#xe665;" glyph-name="track_history" d="M576 486.4v281.6h-128v-352l313.6-185.6 64 115.2zM512 928c-179.2 0-339.2-102.4-422.4-249.6l-89.6 89.6v-320h320l-153.6 153.6c57.6 134.4 192 230.4 345.6 230.4 211.2 0 384-172.8 384-384s-172.8-384-384-384c-172.8 0-313.6 115.2-364.8 268.8l-89.6-44.8c64-185.6 243.2-320 454.4-320 262.4 0 480 217.6 480 480s-217.6 480-480 480z" />
<glyph unicode="&#xe666;" glyph-name="cancel" d="M512 960c-281.6 0-512-230.4-512-512s230.4-512 512-512 512 230.4 512 512-230.4 512-512 512zM128 448c0 211.2 172.8 384 384 384 83.2 0 160-25.6 224-70.4l-537.6-537.6c-44.8 64-70.4 140.8-70.4 224zM512 64c-83.2 0-160 25.6-224 70.4l537.6 537.6c44.8-64 70.4-140.8 70.4-224 0-211.2-172.8-384-384-384z" />
<glyph unicode="&#xe667;" glyph-name="battery" d="M960 512v128h-960v-448h960v128h64v192h-64zM896 256h-832v320h832v-320zM128 512h512v-192h-512v192z" />
<glyph unicode="&#xe66c;" glyph-name="add-bookmark" d="M896 192h-128v128h-128v-128h-128v-128h128v-128h128v128h128zM387.392 94.656c-1.216 11.072-3.392 21.952-3.392 33.344 0 176.768 143.232 320 320 320 53.568 0 103.296-14.464 147.712-37.696l172.288 158.912-355.136 48.96-156.992 300.672-157.056-300.736-354.816-48.896 257.024-237.056-60.352-332.16 190.72 94.656z" />
<glyph unicode="&#xe670;" glyph-name="bell" d="M871.232 315.264v206.784c-1.024 159.040-110.016 311.488-273.6 350.016 0 0-5.376 80.576-85.376 80.576-81.984 0-86.016-78.144-86.016-78.144-163.008-38.464-270.976-193.344-272-352.448v-200c0-97.984-64.192-114.816-140.48-194.048h996.48c-75.968 79.232-139.008 89.6-139.008 187.264zM174.912 192c25.28 31.488 43.328 71.168 43.328 130.048v199.616c0.896 138.112 94.528 260.288 222.656 290.496l46.656 9.536 2.432 47.936c1.984 18.944 12.8 18.944 22.208 18.944 7.616 0 19.136 0 21.504-20.736l3.136-47.232 46.144-10.88c129.152-30.4 223.36-151.488 224.256-287.68v-206.784c0-56.256 16.384-93.888 39.488-123.264h-671.808zM340.864 64c28.288-73.984 94.144-128 171.392-128 76.608 0 142.528 54.016 170.624 128h-342.016z" />
<glyph unicode="&#xe671;" glyph-name="bell-solid" d="M512.256 952.64c-81.984 0-86.016-78.144-86.016-78.144-163.008-38.464-270.976-193.344-272-352.448v-200c0-97.984-64.192-114.816-140.48-194.048h996.48c-76.032 79.232-139.008 89.6-139.008 187.264v206.784c-1.024 159.040-110.016 311.488-273.664 350.016 0 0-5.312 80.576-85.312 80.576v0zM340.864 64c28.288-73.984 94.144-128 171.392-128 76.608 0 142.528 54.016 170.624 128h-342.016z" />
<glyph unicode="&#xe672;" glyph-name="gpx-traces" d="M954.048 391.104c-3.072-14.72-13.12-28.544-31.68-24.128-66.752 15.872-171.392 20.544-233.344 5.568-22.72-5.568-33.344 4.352-41.92 31.552-21.248 67.648-54.912 149.184-47.68 253.632 16.192 233.984 112.832 298.816 185.536 294.592 72.768-4.224 259.904-119.872 169.088-561.216zM654.656 251.52c0 0-12.992-40.576-20.288-106.752-12.16-109.376 11.392-185.216 118.144-200.64 90.176-12.992 148.032 54.784 160.064 164.096 7.232 66.112 7.936 108.288 7.936 108.288l-265.856 35.008zM238.976 952.32c72.768 4.16 169.344-60.544 185.536-294.592 7.232-104.448-26.432-185.984-47.68-253.632-8.576-27.136-19.2-37.056-41.92-31.552-61.952 14.976-166.592 10.304-233.344-5.568-18.56-4.352-28.608 9.344-31.68 24.128-90.752 441.344 96.384 556.992 169.088 561.216zM103.552 216.576c0 0 0.704-42.176 7.872-108.288 12.096-109.312 69.952-177.152 160-164.096 106.88 15.424 130.368 91.264 118.272 200.64-7.296 66.176-20.352 106.752-20.352 106.752l-265.792-35.008z" />
<glyph unicode="&#xe673;" glyph-name="range-bearing" d="M725.504 960l-725.504-725.248 298.496-298.752 725.504 725.248-298.496 298.752zM89.472 234.752l58.624 58.432 76.608-76.928 45.376 45.312-76.736 76.8 74.112 74.24 140.992-140.864 44.992 45.376-140.8 140.608 72.064 72.128 74.752-74.624 45.184 45.248-74.496 74.752 72.064 72 140.736-140.8 45.312 45.312-140.8 140.736 73.984 74.24 76.992-76.928 45.12 45.44-76.8 76.608 58.688 58.496 209.024-209.152-635.968-635.584-209.024 209.152z" />
<glyph unicode="&#xe674;" glyph-name="heading" d="M0 512l64-320h768l192 320h-213.376l-42.624 128h-128l-64 128h-128v-128h-256l-42.624-128z" />
<glyph unicode="&#xe675;" glyph-name="minus" d="M128 576h768v-256h-768v256z" />
<glyph unicode="&#xe676;" glyph-name="plus" d="M896 576h-256v256h-256v-256h-256v-256h256v-256h256v256h256z" />
<glyph unicode="&#xe67a;" glyph-name="chevron-left" d="M640 832l128-128-256-256 256-256-128-128-384 384z" />
<glyph unicode="&#xe67b;" glyph-name="chevron-up" d="M896 320l-128-128-256 256-256-256-128 128 384 384z" />
<glyph unicode="&#xe67c;" glyph-name="dim" d="M851.402 832.64l45.254-45.254-135.763-135.763-45.254 45.254 135.763 135.763zM896.642 108.57l-45.254-45.254-135.763 135.763 45.254 45.254 135.763-135.763zM172.58 63.36l-45.254 45.254 135.763 135.763 45.254-45.254-135.763-135.763zM127.35 787.411l45.254 45.254 135.763-135.763-45.254-45.254-135.763 135.763zM480.64 959.936h64v-192h-64v192zM832 480h192v-64h-192v64zM480 128h64v-192h-64v192zM0 480h192v-64h-192v64zM512 704c-141.376 0-256-114.624-256-256s114.624-256 256-256c141.376 0 256 114.624 256 256s-114.624 256-256 256zM512 256v384c105.92 0 192-86.144 192-192s-86.144-192-192-192z" />
<glyph unicode="&#xe67d;" glyph-name="friendly-and-neutral" d="M960 832h-576l192-192-512-448 192-192 512 448 192-192z" />
<glyph unicode="&#xe67e;" glyph-name="full-screen" d="M64 896h320l-128-128 192-192-64-64-192 192-128-128zM960 0h-320l128 128-192 192 64 64 192-192 128 128z" />
<glyph unicode="&#xe67f;" glyph-name="full-screen-exit" d="M576 384h320l-128-128 192-192-64-64-192 192-128-128zM448 512h-320l128 128-192 192 64 64 192-192 128 128z" />
<glyph unicode="&#xe680;" glyph-name="globally-significant" d="M128 0h798.080l1.92 701.312-196.032 194.688h-603.968z" />
<glyph unicode="&#xe681;" glyph-name="globe" d="M512 960c-282.752 0-512-229.248-512-512s229.248-512 512-512 512 229.248 512 512c0 282.752-229.248 512-512 512zM801.664 277.376c9.216 43.136 14.912 88.896 16.832 136.512h135.936c-3.584-47.104-14.528-92.928-32.704-136.512h-120.064zM222.336 618.688c-9.216-43.2-14.976-88.96-16.832-136.576h-135.936c3.584 47.168 14.464 92.928 32.768 136.576h120zM731.776 618.688c10.24-43.712 16.448-89.408 18.432-136.512h-204.096v136.512h185.664zM546.112 686.912v199.808c15.552-4.48 31.040-12.096 46.144-22.72 28.352-20.032 55.488-50.752 78.464-89.088 15.872-26.432 29.632-55.936 41.088-88h-165.696zM353.344 774.912c22.912 38.272 50.048 69.056 78.4 89.088 15.104 10.688 30.592 18.304 46.144 22.784v-199.808h-165.632c11.52 32 25.152 61.504 41.088 87.936zM477.888 618.688v-136.512h-204.096c2.048 47.040 8.192 92.8 18.432 136.512h185.664zM102.336 277.376c-18.304 43.584-29.184 89.344-32.768 136.512h135.936c1.856-47.616 7.616-93.376 16.832-136.512h-120zM273.792 413.888h204.032v-136.512h-185.6c-10.24 43.648-16.384 89.344-18.432 136.512zM477.888 209.088v-199.808c-15.552 4.48-30.976 12.096-46.144 22.72-28.352 20.032-55.488 50.816-78.464 89.152-15.872 26.368-29.568 55.872-41.088 87.936h165.696zM670.656 121.152c-22.912-38.336-50.048-69.12-78.464-89.152-15.104-10.624-30.592-18.24-46.144-22.72v199.808h165.632c-11.392-32.064-25.088-61.568-41.024-87.936zM546.112 277.376v136.512h204.032c-1.984-47.104-8.192-92.864-18.432-136.512h-185.6zM818.496 482.112c-1.856 47.616-7.616 93.376-16.832 136.512h120.064c18.176-43.584 29.12-89.344 32.704-136.512h-135.936zM886.080 686.912h-102.336c-19.904 62.656-47.296 117.632-80.384 161.536 45.376-21.696 86.528-50.816 122.368-86.72 22.976-22.912 43.072-47.872 60.352-74.816zM198.272 761.728c35.84 35.904 76.992 65.024 122.368 86.72-33.088-43.904-60.544-98.816-80.384-161.536h-102.272c17.216 26.944 37.312 51.904 60.288 74.816zM137.984 209.088h102.272c19.904-62.656 47.296-117.696 80.384-161.536-45.376 21.76-86.528 50.88-122.368 86.72-22.976 22.848-43.072 47.872-60.288 74.816zM825.728 134.272c-35.904-35.904-76.992-65.024-122.368-86.72 33.088 43.904 60.48 98.88 80.384 161.536h102.336c-17.28-26.944-37.376-51.968-60.352-74.816z" />
<glyph unicode="&#xe682;" glyph-name="kml-gallery" d="M0 576v-576h640v576h-640zM576 128h-512v384h512v-384zM422.592 896l-104.832-288h68.16l75.008 205.952 481.088-175.232-131.392-360.768-138.624 50.496v-136.256l155.008-56.448 196.992 541.248z" />
<glyph unicode="&#xe683;" glyph-name="layer-content" d="M827.904 552.96l188.032 107.776-503.872 295.808-503.936-295.808 184.64-105.728-184.64-110.4 189.888-108.736-189.888-107.52 503.872-288.832 503.872 288.896-189.696 107.456 189.696 108.8-187.968 108.288zM151.872 444.48l113.984 68.544 246.144-141.12 242.368 138.944 117.504-66.432-359.872-216.64-360.128 216.704zM511.872 11.776l-360 216.512 113.984 68.48 246.144-140.992 246.016 140.992 113.856-68.48-360-216.512z" />
<glyph unicode="&#xe684;" glyph-name="map-administration" d="M968.64 224c0 35.904 22.080 64.256 55.36 83.776-6.016 20.032-13.952 39.232-23.68 57.344-37.312-9.792-67.584 4.8-92.928 30.272-25.344 25.344-33.216 55.552-23.424 92.928-18.112 9.728-37.312 17.664-57.344 23.68-19.584-33.28-54.656-55.424-90.624-55.424s-71.040 22.144-90.624 55.424c-20.032-6.016-39.232-13.952-57.344-23.744 9.792-37.312 2.048-67.52-23.424-92.864-25.344-25.472-55.616-40.064-92.928-30.336-9.728-18.048-17.664-37.248-23.68-57.28 33.344-19.52 55.36-47.872 55.36-83.776s-22.016-71.104-55.36-90.624c6.016-20.032 13.952-39.232 23.68-57.344 37.312 9.792 67.584 1.984 92.928-23.424 25.408-25.344 33.216-55.616 23.424-92.928 18.048-9.664 37.248-17.664 57.344-23.68 19.584 33.28 54.656 55.36 90.624 55.36s71.040-22.080 90.624-55.36c20.032 6.016 39.232 14.016 57.344 23.744-9.728 37.248-1.92 67.52 23.424 92.864 25.344 25.408 55.616 40.064 92.928 30.272 9.728 18.112 17.664 37.376 23.68 57.344-33.344 19.52-55.36 47.872-55.36 83.776zM736 98.752c-69.184 0-125.248 56.128-125.248 125.248s56.064 125.248 125.248 125.248 125.248-56.128 125.248-125.248-56.064-125.248-125.248-125.248zM384 648.448l256 160v-246.016c20.608 5.824 41.984 9.984 64 11.968v227.712l256-134.336v-172.224c24.384-20.096 45.824-43.648 64-69.504v277.952l-352 192-319.104-192-352.896 192v-704l352.896-192 31.104 19.904v628.544zM320.896 93.824l-256.896 134.4v554.752l256.896-134.4v-554.752z" />
<glyph unicode="&#xe685;" glyph-name="private-layer" d="M822.464 512.064v110.080c0.128 171.072-139.264 310.208-310.272 310.208-171.136 0-310.4-139.136-310.4-310.208v-110.144h-73.792v-576h768v576.064h-73.536zM320 622.144c0 106.752 85.376 193.216 192 193.216 106.432 0 192-86.528 192-193.216v-110.144h-384v110.144zM565.504 93.504h-106.624l16 157.056c-19.584 12.16-33.024 33.984-33.024 59.2 0 38.784 31.552 70.016 70.336 70.016 38.464 0 69.888-31.168 69.888-70.016 0-25.216-13.12-46.912-32.96-59.2l16.384-157.056z" />
<glyph unicode="&#xe686;" glyph-name="zoom-area" d="M806.336 257.28c31.040 49.664 49.344 108.16 49.344 170.944 0 115.136-60.8 215.744-151.616 273.216v258.56h-704.064v-704h258.624c57.408-90.816 158.080-151.616 273.216-151.616 62.784 0 121.28 18.24 170.944 49.344l217.6-217.664 103.616 103.552-217.664 217.664zM228.032 320h-164.032v576h576v-164.032c-33.984 12.224-70.080 20.032-108.16 20.032-178.56 0-323.84-145.28-323.84-323.84 0-38.080 7.808-74.176 20.032-108.16zM531.84 182.144c-68.608 0-130.688 28.352-175.36 73.856-18.24 18.56-32.96 40.448-44.544 64-16.32 32.832-26.24 69.184-26.24 108.16 0 135.68 110.464 246.144 246.144 246.144 38.976 0 75.392-9.92 108.16-26.176 23.552-11.648 45.44-26.304 64-44.544 45.504-44.672 73.856-106.752 73.856-175.36 0-135.744-110.336-246.080-246.016-246.080z" />
<glyph unicode="&#xe687;" glyph-name="cross" d="M896 704l-128 128-256-256-256 256-128-128 256-256-256-256 128-128 256 256 256-256 128 128-256 256z" />
<glyph unicode="&#xe688;" glyph-name="user" d="M398.272 371.968c-1.472-22.976 0-56.896 0-56.896s41.152-37.888 115.264-37.888c74.368 0 115.392 37.888 115.392 37.888s1.472 33.856 0 56.896c-1.28 19.008 44.032 68.928 63.104 123.072 20.608 57.856 30.848 129.728 30.848 213.44 0 98.752-8.64 219.648-209.344 219.648-200.64 0-209.28-120.896-209.28-219.648 0-83.712 10.24-155.584 30.72-213.44 19.264-54.080 64.512-104.064 63.296-123.072zM1023.872 64c0 0 0.256 64-54.72 103.488-75.904 54.464-241.984 133.248-241.984 133.248s-76.352-98.88-213.632-98.88c-131.52 0-213.504 98.88-213.504 98.88s-168-77.504-244.352-132.608c-55.488-40.128-55.488-104.128-55.488-104.128h-0.128v-128h1024v128h-0.192z" />
<glyph unicode="&#xe689;" glyph-name="ts" d="M192 768v-128h512v-512h128v640h-640zM384 960v-128h512v-512h128v640h-640zM0 576v-640h640v640h-640zM320 32l-224 224 224 224 224-224-224-224zM320 121.6l-134.4 134.4 134.336 134.4 134.464-134.4-134.4-134.4z" />
<glyph unicode="&#xe68b;" glyph-name="track-server-icon" d="M0 672l320 224v-128h576v-192h-576v-128zM1024 224l-320 224v-128h-576v-192h576v-128z" />
<glyph unicode="&#xe68c;" glyph-name="track-server" d="M0 704l256 256h512l256-256zM0 640v-192h1024v192h-1024zM832 512h-192v64h192v-64zM0 384v-192h1024v192h-1024zM832 256h-192v64h192v-64zM0 128v-192h1024v192h-1024zM832 0h-192v64h192v-64z" />
<glyph unicode="&#xe68d;" glyph-name="toolbox-disable" d="M704 604.8v355.2h-704v-704h355.264c16.256-161.472 150.976-288 316.736-288 176.768 0 320 143.232 320 320 0 165.76-126.656 300.48-288 316.8zM64 320v576h576v-291.2c-150.72-15.232-269.568-134.080-284.736-284.8h-291.264zM672 55.232c-117.568 0-213.824 87.488-229.504 200.768-1.472 10.56-3.264 20.992-3.264 32s1.728 21.44 3.264 32c14.272 102.656 94.848 183.232 197.504 197.504 10.56 1.472 21.056 3.2 32 3.2s21.44-1.664 32-3.2c113.28-15.744 200.768-111.936 200.768-229.504 0-128.512-104.256-232.768-232.768-232.768z" />
<glyph unicode="&#xe68e;" glyph-name="symbol-toolbox" d="M256 288c0 229.696 186.176 416 416 416 10.816 0 21.376-0.832 32-1.6v257.6h-704v-704h257.6c-0.768 10.624-1.6 21.184-1.6 32zM992 288c0-176.731-143.269-320-320-320s-320 143.269-320 320c0 176.731 143.269 320 320 320s320-143.269 320-320z" />
<glyph unicode="&#xe68f;" glyph-name="thumbs-up" d="M1003.52 252.224c7.872 14.528 17.536 32.384 18.624 54.976 7.68 38.656-10.624 60.672-21.696 72.512 0.832 1.344 29.12 60.032-10.88 109.76l-5.888 7.488-8.832 3.968c-40.128 17.92-169.536 60.672-188.032 67.392 1.408 8.192 3.584 16.576 5.632 24.704 5.12 21.056 29.248 226.176-9.408 298.176-12.096 22.912-32.768 44.096-54.72 56.576-38.016 21.376-77.12 14.4-99.52-17.984l-7.552-10.752 0.64-12.736c4.864-88.384-3.776-170.624-11.136-198.4l-0.256-1.28c-10.88-47.552-53.824-87.104-88.256-118.848-2.432-2.368-94.464-86.656-139.84-116.992-103.040-11.84-332.16-14.336-332.16-14.336l-10.624-24.448c-21.76-50.112-37.568-129.728-39.36-198.4-2.688-95.616 20.992-160.384 68.096-186.88v0c6.976-4.032 305.536 3.264 366.976-13.952 44.416-15.040 77.12-30.464 105.984-43.84 40.896-19.008 76.096-35.52 122.112-40.256h0.256c60.032-5.888 99.52-7.872 152.128 20.608 9.152 4.16 24 8.64 39.872 13.12 34.624 9.984 73.728 21.248 100.352 45.12 22.272 18.112 41.408 53.12 32.64 99.264v0c7.104 8.896 15.872 19.648 17.6 33.984 5.504 28.16-1.856 48.384-6.848 61.76-3.648 9.856-4.032 11.648-3.008 15.104 1.408 4.096 4.16 9.216 7.104 14.592z" />
<glyph unicode="&#xe690;" glyph-name="success" d="M1024 704l-128 128-512-512-256 256-128-128 384-384z" />
<glyph unicode="&#xe691;" glyph-name="orbat-viewer" d="M832.064 320v192h-320.064v128h128.064v320h-320.064v-320h128v-128h-320v-192h-128v-320h320v320h-128v128h576.064v-128h-128v-320h320v320z" />
<glyph unicode="&#xe692;" glyph-name="straight" d="M192 768v-128h512v-512h128v640h-640zM384 960v-128h512v-512h128v640h-640zM0 576v-640h640v640h-640z" />
<glyph unicode="&#xe693;" glyph-name="stc" d="M672 704c141.184 0 256-114.816 256-256s-114.816-256-256-256h-320c-141.184 0-256 114.816-256 256s114.816 256 256 256h320zM672 768h-320c-176.768 0-320-143.232-320-320s143.232-320 320-320h320c176.768 0 320 143.232 320 320s-143.232 320-320 320v0zM864 448c0 106.048-85.952 192-192 192h-320c-106.048 0-192-85.952-192-192v0c0-106.048 85.952-192 192-192h320c106.048 0 192 85.952 192 192v0z" />
<glyph unicode="&#xe694;" glyph-name="bookmark-disable" d="M196.672-22.848l60.288 332.096-256.96 237.056 354.816 48.96 157.056 300.736 156.992-300.736 355.136-48.96-257.28-237.184 60.224-332.032-315.264 156.352-315.008-156.288zM511.872 200l235.776-116.992-45.12 247.744 188.608 173.888-260.608 35.968-118.656 227.136-118.528-227.136-260.48-36.032 188.48-173.888-44.992-247.744 235.52 117.056z" />
<glyph unicode="&#xe695;" glyph-name="bookmarks" d="M196.672-22.848l60.352 332.096-257.024 237.056 354.816 48.96 157.056 300.736 156.992-300.736 355.136-48.96-257.28-237.184 60.416-331.968-315.264 156.48z" />
<glyph unicode="&#xe696;" glyph-name="speed" d="M401.28 260.736c-36.48-64-11.968-116.48 38.656-145.984 50.688-29.632 108.032-24.896 144.384 38.976 36.544 64 266.88 634.624 246.656 646.336-19.968 11.712-393.216-475.456-429.696-539.328zM505.6 641.984c22.272 0 43.776-1.792 64.896-5.376 22.272 27.712 46.848 58.24 71.104 87.36-43.136 12.48-88.64 19.264-136 19.264-283.392 0-505.6-239.168-505.6-544.384 0-18.88 0.896-37.632 2.496-55.872 2.56-28.032 27.392-48.384 54.848-46.016 27.84 2.368 48.256 27.136 45.888 54.848-1.344 15.232-1.984 30.848-1.984 46.72 0 248.832 177.728 443.456 404.352 443.456zM875.904 604.736c-14.784-40-30.656-80.64-44.224-115.968 54.144-78.272 86.016-176.64 86.016-284.544 0-16.96-0.64-33.856-2.112-50.368-2.752-29.248 18.88-55.104 48.384-57.856 1.344-0.128 3.264-0.256 4.608-0.256 27.52 0 50.496 20.736 53.056 48.576 1.408 19.84 2.56 39.936 2.56 59.968-0.192 157.312-56.256 297.984-148.288 400.448z" />
<glyph unicode="&#xe697;" glyph-name="smart-layers" d="M512 960c-282.752 0-512-71.616-512-160v-96l384-384v-320c0-35.392 57.344-64 128-64s128 28.608 128 64v320l384 384v96c0 88.384-229.248 160-512 160zM94.4 821.184c23.936 13.632 57.536 26.624 97.344 37.504 87.872 24.064 201.6 37.312 320.256 37.312s232.384-13.248 320.32-37.312c39.744-10.88 73.344-23.872 97.344-37.504 15.872-9.088 24.448-16.64 28.288-21.184-4.032-4.544-12.416-12.096-28.288-21.184-23.872-13.632-57.408-26.624-97.344-37.504-87.936-24.064-201.664-37.312-320.32-37.312s-232.384 13.248-320.32 37.312c-39.744 10.88-73.344 23.872-97.344 37.504-15.744 9.088-24.256 16.64-28.288 21.184 4.032 4.544 12.544 12.096 28.352 21.184z" />
<glyph unicode="&#xe698;" glyph-name="shield" d="M956.096 827.776l-1.024 6.72-5.76 3.776c-124.992 80.896-265.28 121.728-416.384 121.728-256.64 0-453.12-116.48-461.376-121.344l-7.104-4.288-0.256-8.32c-20.096-599.488 433.6-882.24 438.4-884.992l9.024-5.248 8.256 6.144c511.104 384.448 437.376 880.768 436.224 885.824zM510.272 115.776c-30.144 20.352-132.48 97.344-212.864 233.984 150.848 81.152 425.472 167.488 511.36 193.344-34.112-126.080-114.112-286.080-298.496-427.328zM528.384 848.384c109.12 0 210.752-28.864 301.888-86.336 1.344-12.032 3.392-39.488 1.472-78.464-67.392-13.248-393.856-83.712-596.992-200.192-27.776 79.552-44.736 172.352-42.24 278.656 32.256 17.728 168.384 86.336 335.872 86.336z" />
<glyph unicode="&#xe699;" glyph-name="sheet-disable" d="M704 960h-576v-1024h768v832l-192 192zM832 0h-640v896h485.504l154.496-154.496v-741.504zM320 640h384v-64h-384v64zM320 512h384v-64h-384v64zM320 384h384v-64h-384v64zM320 256h384v-64h-384v64z" />
<glyph unicode="&#xe69a;" glyph-name="document-text" d="M704 960h-576v-1024h768v832l-192 192zM704 192h-384v64h384v-64zM704 320h-384v64h384v-64zM704 448h-384v64h384v-64zM704 576h-384v64h384v-64z" />
<glyph unicode="&#xe69b;" glyph-name="share" d="M768 192h-640v448h128l128 128h-384v-704h896v320l-128-128v-64zM704 576v-192l320 256-320 256v-192c-412.736 0-448-448-448-448 116.864 191.936 224 320 448 320z" />
<glyph unicode="&#xe69c;" glyph-name="search" d="M1024 64l-268.864 268.864c38.272 61.376 60.864 133.632 60.864 211.136 0 220.544-179.52 400-400 400-220.544 0-400-179.456-400-400 0-220.48 179.456-400 400-400 77.568 0 149.76 22.528 211.136 60.864l268.864-268.864 128 128zM112 544c0 167.616 136.384 304 304 304s304-136.384 304-304-136.384-304-304-304-304 136.384-304 304z" />
<glyph unicode="&#xe69d;" glyph-name="save-as" d="M832 768h-640v-832h832v640l-192 192zM768 384h-320v256h320v-256zM576 576h128v-128h-128v128zM640 960h-640v-832h128v704h640z" />
<glyph unicode="&#xe69e;" glyph-name="save" d="M832 960h-832v-1024h1024v832l-192 192zM704 512h-448v320h448v-320zM512 768h128v-192h-128v192z" />
<glyph unicode="&#xe69f;" glyph-name="rss" d="M0.384 139.008c-0.128 0-0.256-0.064-0.384-0.064v-202.624h204.928c-1.152 112.128-92.16 202.688-204.544 202.688zM6.656 411.968c-2.24 0-4.288-0.704-6.656-0.704v-133.76c0.064 0 0.064 0 0.064 0 188.544 0 341.312-152.768 341.312-341.248h142.72c-1.216 262.848-214.4 475.712-477.44 475.712zM0.256 686.976h-0.256v-136.384c338.944-0.256 613.696-275.136 613.696-614.144v-0.256l137.344 0.064c-0.192 414.592-336.192 750.72-750.784 750.72zM0.384 960h-0.384v-136.512c489.344-0.384 886.016-397.184 886.016-886.656v-0.64l137.984 0.064c0 565.44-458.304 1023.744-1023.616 1023.744z" />
<glyph unicode="&#xe6a0;" glyph-name="rectangle" d="M0 832h1024v-768h-1024v768z" />
<glyph unicode="&#xe6a1;" glyph-name="question" d="M384.256 252.352c0.384 56.128 10.56 98.368 30.4 126.72 19.84 28.288 56 60.928 108.544 97.664 27.2 17.088 48.448 38.080 64.064 63.040 15.488 25.088 23.232 54.016 23.232 86.72 0 33.92-9.024 61.056-27.264 81.344-18.176 20.16-44.032 30.336-77.696 30.336-27.072 0-49.664-8.32-67.904-24.96-18.24-16.576-27.712-41.216-28.48-73.92h-199.552l-1.28 3.584c-1.216 84.096 25.6 147.392 80.448 189.632 54.72 42.24 127.040 63.36 216.768 63.36 96.32 0 172.032-24.192 227.264-72.832 55.168-48.576 82.816-114.048 82.816-196.48 0-50.56-15.104-97.216-45.184-139.584-30.208-42.432-68.48-75.968-115.008-100.032-25.792-17.024-43.456-35.328-52.416-54.912-9.152-19.776-13.632-46.4-13.632-79.744h-205.12zM588.736 0h-203.84v163.904h203.904l-0.064-163.904z" />
<glyph unicode="&#xe6a2;" glyph-name="print" d="M64 640h896c29.824 0 25.024 31.744 10.048 36.928-14.784 5.184-183.808 58.432-212.544 58.432l-53.504 3.904v156.736h-384v-156.736l-53.568-3.904c-28.672 0-197.632-53.248-212.416-58.432-14.912-5.184-19.776-36.928 9.984-36.928zM960 576h-896c-64 0-64-64-64-64v-193.28c0 1.28 0-62.72 64-62.72h108.032l-44.032-256h768l-41.984 256h105.984c0 0 64 0 64 64v192c0 0 0 64-64 64zM230.016 64l70.976 384h425.024l66.048-384h-562.048z" />
<glyph unicode="&#xe6a3;" glyph-name="position-field" d="M128 704h576v128l256-192-256-192v128h-576zM896 320h-576v128l-256-192 256-192v128h576z" />
<glyph unicode="&#xe6a4;" glyph-name="point" d="M512 928c-159.040 0-288-129.024-288-288s288-672 288-672 288 512.896 288 672-129.024 288-288 288zM512 512c-70.656 0-128 57.28-128 128s57.344 128 128 128c70.656 0 128-57.344 128-128s-57.344-128-128-128z" />
<glyph unicode="&#xe6a6;" glyph-name="pattern-vertical" d="M192 960h64v-1024h-64v1024zM0 960h64v-1024h-64v1024zM960 960h64v-1024h-64v1024zM384 960h64v-1024h-64v1024zM576 960h64v-1024h-64v1024zM768 960h64v-1024h-64v1024z" />
<glyph unicode="&#xe6a7;" glyph-name="pattern-none" d="M1024-64h-1024v1024h1024v-1024zM64 0h896v896h-896v-896z" />
<glyph unicode="&#xe6a8;" glyph-name="pattern-horizontal" d="M0 192h1024v-64h-1024v64zM0 0h1024v-64h-1024v64zM0 960h1024v-64h-1024v64zM0 384h1024v-64h-1024v64zM0 576h1024v-64h-1024v64zM0 768h1024v-64h-1024v64z" />
<glyph unicode="&#xe6a9;" glyph-name="pattern-diagonal-up" d="M1024 869.504l-933.504-933.504h90.496l843.008 843.008zM1024 598.016l-662.016-662.016h90.624l571.392 571.456zM1024 326.464l-390.4-390.464h90.496l299.904 299.968zM1024 54.848l-118.848-118.848h90.496l28.352 28.352zM571.456 960l-571.456-571.392v-90.496l661.952 661.888zM843.008 960l-843.008-843.008v-90.496l933.504 933.504zM299.968 960l-299.968-299.904v-90.496l390.464 390.4zM28.352 960l-28.352-28.352v-90.496l118.848 118.848z" />
<glyph unicode="&#xe6aa;" glyph-name="pattern-diagonal-down" d="M90.496 960l933.504-933.504v90.496l-843.008 843.008zM361.984 960l662.016-662.016v90.624l-571.456 571.392zM633.536 960l390.464-390.4v90.496l-299.968 299.904zM905.152 960l118.848-118.848v90.496l-28.352 28.352zM0 507.456l571.392-571.456h90.496l-661.888 661.952zM0 779.008l843.008-843.008h90.496l-933.504 933.504zM0 235.968l299.904-299.968h90.496l-390.4 390.464zM0-35.648l28.352-28.352h90.496l-118.848 118.848z" />
<glyph unicode="&#xe6ab;" glyph-name="pattern-diagonal-crosshatch" d="M995.648 960h-152.64l-59.456-59.456-59.52 59.456h-152.576l-59.456-59.456-59.456 59.456h-152.64l-59.52-59.456-59.392 59.456h-152.64l-28.352-28.352v-152.64l59.456-59.456-59.456-59.456v-152.704l59.392-59.392-59.392-59.392v-152.704l59.456-59.52-59.456-59.392v-152.64l28.352-28.352h152.64l59.456 59.456 59.456-59.456h152.768l59.328 59.392 59.392-59.392h152.704l59.456 59.456 59.456-59.456h152.64l28.352 28.352v152.64l-59.456 59.456 59.456 59.52v152.64l-59.392 59.392 59.392 59.456v152.64l-59.456 59.456 59.456 59.456v152.64l-28.352 28.352zM647.744 945.792l90.56-90.496-90.496-90.496-90.56 90.496 90.496 90.496zM647.744 221.76l-90.496 90.496 90.496 90.496 90.496-90.496-90.496-90.496zM783.552 266.944l90.496-90.496-90.496-90.496-90.496 90.496 90.496 90.496zM285.696 312.192l90.56 90.56 90.496-90.496-90.56-90.56-90.496 90.496zM330.944 176.448l-90.496-90.496-90.496 90.496 90.496 90.496 90.496-90.496zM376.192 674.304l90.56-90.56-90.496-90.496-90.56 90.56 90.496 90.496zM240.448 629.056l-90.496 90.496 90.496 90.496 90.496-90.496-90.496-90.496zM421.44 719.552l90.496 90.496 90.56-90.56-90.496-90.496-90.56 90.56zM512 538.496l90.496-90.496-90.496-90.496-90.496 90.496 90.496 90.496zM331.008 448l-90.56-90.56-90.56 90.56 90.56 90.56 90.56-90.56zM512 267.008l90.496-90.496-90.56-90.56-90.496 90.496 90.56 90.56zM692.992 448l90.496 90.496 90.496-90.496-90.496-90.496-90.496 90.496zM647.744 493.248l-90.496 90.496 90.496 90.496 90.496-90.496-90.496-90.496zM693.056 719.552l90.496 90.496 90.496-90.496-90.496-90.496-90.496 90.496zM376.256 945.728l90.432-90.432-90.496-90.496-90.496 90.496 90.56 90.432zM14.208 855.296l90.496 90.496 90.496-90.496-90.496-90.496-90.496 90.496zM14.144 583.744l90.56 90.56 90.496-90.496-90.56-90.56-90.496 90.496zM14.144 312.256l90.496 90.496 90.56-90.56-90.496-90.496-90.56 90.56zM104.704-49.792l-90.496 90.496 90.496 90.496 90.496-90.496-90.496-90.496zM376.192-49.792l-90.496 90.496 90.496 90.496 90.496-90.496-90.496-90.496zM647.744-49.856l-90.496 90.496 90.56 90.56 90.496-90.496-90.56-90.56zM1009.792 40.704l-90.496-90.496-90.496 90.496 90.496 90.496 90.496-90.496zM1009.728 312.256l-90.432-90.56-90.496 90.496 90.496 90.496 90.432-90.432zM1009.792 583.808l-90.496-90.496-90.496 90.496 90.496 90.496 90.496-90.496zM919.296 764.8l-90.496 90.496 90.496 90.496 90.496-90.496-90.496-90.496z" />
<glyph unicode="&#xe6ac;" glyph-name="pattern-crosshatch" d="M960 960h-960v-1024h1024v1024h-64zM768 896v-128h-128v128h128zM448 576v128h128v-128h-128zM576 512v-128h-128v128h128zM384 576h-128v128h128v-128zM384 512v-128h-128v128h128zM384 320v-128h-128v128h128zM448 320h128v-128h-128v128zM640 320h128v-128h-128v128zM640 384v128h128v-128h-128zM640 576v128h128v-128h-128zM576 896v-128h-128v128h128zM384 896v-128h-128v128h128zM64 896h128v-128h-128v128zM64 704h128v-128h-128v128zM64 512h128v-128h-128v128zM64 320h128v-128h-128v128zM64 0v128h128v-128h-128zM256 0v128h128v-128h-128zM448 0v128h128v-128h-128zM640 0v128h128v-128h-128zM960 0h-128v128h128v-128zM960 192h-128v128h128v-128zM960 384h-128v128h128v-128zM960 576h-128v128h128v-128zM960 768h-128v128h128v-128z" />
<glyph unicode="&#xe6ad;" glyph-name="oth-gold" d="M0 960v-1024h1024v1024h-1024zM512 32c-229.76 0-416 186.24-416 416s186.24 416 416 416 416-186.24 416-416-186.24-416-416-416zM512 768c-176.448 0-320-143.552-320-320s143.552-320 320-320 320 143.552 320 320-143.552 320-320 320z" />
<glyph unicode="&#xe6ae;" glyph-name="operational-picture" d="M339.072 736.256c35.008-3.648 72.768-18.56 100.736-42.432-6.528 19.584-7.168 38.912-3.008 50.368 2.496 6.784 4.416 14.656 2.944 22.656-5.312 30.144-37.312 54.464-72.064 54.464-34.624 0-58.368-24.32-52.928-54.592 0.128-0.384 0.384-0.768 0.512-1.28 0.32-0.64-27.2-5.824-51.52-27.392-2.048-1.728-5.44-5.632-9.344-10.368 22.272 7.616 50.24 12.096 84.672 8.576zM1006.848 386.816c-1.216 2.304-2.112 4.672-3.264 6.784-1.728 3.904-21.76 32.128-44.032 63.36 0 0-83.584 123.712-143.488 207.424-14.080 14.464-51.2 52.032-129.088 44.032-44.032-4.544-95.36-30.656-112.128-70.72-2.112-14.848-4.288-27.008-6.464-27.008-4.672 0-10.176 17.344-23.552 30.656-7.744 7.872-19.712 12.672-31.744 12.672s-23.36-4.8-31.168-12.672c-13.376-13.376-21.632-30.656-26.24-30.656-0.896 0-2.496 7.936-4.288 18.944-12.544 44.608-68.352 73.92-115.264 78.784-75.904 7.872-112.96-27.648-127.808-42.752-59.648-83.712-143.808-208.64-143.808-208.64-22.592-31.168-42.304-59.776-44.032-63.36-1.216-2.304-2.176-4.608-3.2-6.976-11.072-26.752-17.344-55.808-17.344-86.528 0-124.736 96.64-225.536 221.312-225.536 124.608 0 220.992 100.8 220.992 225.536v34.624c0 19.264 14.592 46.912 32 53.632 9.856 3.712 23.36 5.696 35.456 5.696s29.056-1.984 38.848-5.696c17.344-6.656 33.28-34.368 33.28-53.632 0-19.136 0-34.624 0-34.624 0-124.736 96.512-225.536 220.992-225.536s221.12 100.8 221.12 225.536c0.064 30.784-6.080 59.84-17.088 86.656zM225.984 137.728c-89.792 0-162.56 72.96-162.56 162.496 0 89.472 72.768 162.496 162.56 162.496 89.6 0 162.432-72.896 162.432-162.496 0-89.536-72.768-162.496-162.432-162.496zM510.912 463.296c-33.6 0-61.568 24.384-42.944 43.008 11.008 11.008 26.176 17.792 43.072 17.792 16.704 0 31.808-6.784 42.816-17.792 18.496-18.56-9.408-43.008-42.944-43.008zM805.056 147.968c-86.208 0-156.416 70.272-156.416 156.16 0 86.464 70.4 156.352 156.416 156.352 86.336 0 156.16-70.208 156.16-156.352 0.064-85.888-69.952-156.16-156.16-156.16zM584.384 694.528c27.904 23.488 65.28 38.272 99.904 41.728 34.752 3.648 62.72-1.024 85.12-8.768-4.16 5.312-8 9.6-9.984 11.456-23.872 20.864-50.496 25.92-50.368 26.688 0.192 0.384 0.256 0.768 0.384 1.28 5.44 30.208-18.496 54.528-53.376 54.528-34.624 0-67.2-24.32-72.576-54.528-1.6-8.128-0.832-15.744 1.536-22.656 4.16-11.456 5.632-30.4-0.64-49.728z" />
<glyph unicode="&#xe6af;" glyph-name="open-folder" d="M896 640h-704l-128-640h-64v896h320l128-128h448zM896 0h-748.8l128 576h748.8z" />
<glyph unicode="&#xe6b0;" glyph-name="nvg" d="M793.088 384l-120.704-362.112c-4.352-13.12-16.64-21.888-30.4-21.888-0.384 0-0.832 0-1.28 0-14.144 0.576-26.304 10.432-29.76 24.256l-165.312 661.376-93.248-279.744c-4.352-13.056-16.64-21.888-30.4-21.888h-320v64h296.96l120.704 362.112c4.48 13.504 16.128 21.568 31.616 21.888 14.208-0.576 26.368-10.432 29.824-24.256l165.312-661.376 93.248 279.744c4.352 13.056 16.576 21.888 30.336 21.888h254.016v512h-1024v-1024h1024v448h-230.912z" />
<glyph unicode="&#xe6b1;" glyph-name="notification" d="M0 320h256v640h-256v-640zM128 192c-70.656 0-128-57.344-128-128s57.344-128 128-128 128 57.344 128 128-57.344 128-128 128zM384 896v-128h640v128h-640zM384 512h640v128h-640v-128zM384 256h640v128h-640v-128zM384 0h640v128h-640v-128z" />
<glyph unicode="&#xe6b2;" glyph-name="nffi" d="M0 960v-1024h1024v1024h-1024zM896 192h-768v512h768v-512zM832 256h-640v384h640v-384z" />
<glyph unicode="&#xe6b3;" glyph-name="new-disable" d="M960 192h-128v128h-128v-128h-128v-128h128v-128h128v128h128zM512 0h-320v896h485.504l154.496-154.496v-357.504h64v384l-192 192h-576v-1024h384z" />
<glyph unicode="&#xe6b4;" glyph-name="new-file" d="M448 128c0 176.768 143.232 320 320 320 45.568 0 88.768-9.856 128-27.008v347.008l-192 192h-576v-1024h385.408c-40.448 53.632-65.408 119.616-65.408 192zM960 192h-128v128h-128v-128h-128v-128h128v-128h128v128h128z" />
<glyph unicode="&#xe6b5;" glyph-name="more" d="M576 896v-192h-192v192h192zM576 576v-192h-192v192h192zM576 256v-192h-192v192h192z" />
<glyph unicode="&#xe6b6;" glyph-name="mini-map" d="M1024-64h-1024v1024h1024v-1024zM64 0h896v896h-896v-896zM512 768h320v-320h-320v320z" />
<glyph unicode="&#xe6b7;" glyph-name="cop-icon" d="M672 896l-319.104-192-352.896 192v-704l352.896-192 319.104 192 352-192v704l-352 192zM384.896 648.448l255.104 160v-560.896l-255.104-160v560.896zM64 782.976l256.896-134.464v-554.752l-256.896 134.464v554.752zM960 113.152l-256 134.336v554.688l256-134.4v-554.624z" />
<glyph unicode="&#xe6b8;" glyph-name="maps-disable" d="M672 896l-319.104-192-352.896 192v-704l352.896-192 319.104 192 352-192v704l-352 192zM384.896 648.448l255.104 160v-560.896l-255.104-160v560.896zM64 782.976l256.896-134.464v-554.752l-256.896 134.464v554.752zM960 113.152l-256 134.336v554.688l256-134.4v-554.624z" />
<glyph unicode="&#xe6b9;" glyph-name="maps" d="M0 832l256-178.304v-653.696l-256 178.24zM768 832l256-178.304v-653.696l-256 178.24zM704 832l-384-178.304v-653.696l384 178.24z" />
<glyph unicode="&#xe6ba;" glyph-name="link-16" d="M679.488 457.6c-18.624 0-34.368-3.008-47.488-8.96-12.992-5.888-23.104-14.016-30.272-24.32v-33.28c0-39.552 7.232-70.016 21.504-91.264 14.4-21.312 33.472-31.936 57.28-31.936 20.608 0 37.248 9.408 49.728 28.288s18.624 41.664 18.624 68.416c0 27.712-6.272 50.112-18.88 67.264-12.608 17.28-29.376 25.792-50.496 25.792zM0 960v-1024h1024v1024h-1024zM377.152 197.76h-100.416v381.312h-101.76v70.784l202.176 48.384v-500.48zM801.984 239.68c-31.232-32.768-71.744-49.216-121.472-49.216-52.864 0-96 17.92-129.28 53.824s-49.856 85.568-49.856 149.056v97.664c0 65.472 19.008 117.632 56.768 156.352 37.888 38.72 86.016 58.112 144.384 58.112 18.88 0 36.096-1.792 52.096-5.376 15.872-3.584 31.872-8.768 47.872-15.616l-17.856-73.536c-15.104 5.248-28.48 9.28-40.384 11.904-11.776 2.624-25.472 3.968-41.024 3.968-30.528 0-54.976-11.392-73.344-34.176-18.496-22.784-27.008-54.4-25.6-94.656l1.024-1.728c11.264 11.712 25.344 20.864 42.624 27.52 17.152 6.656 36.48 9.984 58.112 9.984 44.608 0 79.616-15.872 105.024-47.616 25.28-31.744 38.016-72.256 38.016-121.472-0.064-50.624-15.744-92.224-47.104-124.992z" />
<glyph unicode="&#xe6bb;" glyph-name="layers-outline" d="M827.904 553.024l188.032 107.776-503.872 295.808-503.936-295.808 184.64-105.728-184.64-110.4 189.888-108.736-189.888-107.52 503.872-288.896 503.872 288.896-189.696 107.584 189.696 108.8-187.968 108.224zM151.872 660.672l360.064 223.552 359.936-223.552-360-216.704-360 216.704zM151.872 444.48l113.984 68.48 246.144-141.12 242.368 139.008 117.504-66.496-359.872-216.64-360.128 216.768zM511.872 11.776l-360 216.512 113.984 68.48 246.144-140.992 246.016 140.992 113.856-68.48-360-216.512z" />
<glyph unicode="&#xe6bc;" glyph-name="journal-icon" d="M64 960h128v-1024h-128v1024zM256 960v-1024h704v1024h-704zM832 64h-320v192h320v-192z" />
<glyph unicode="&#xe6bd;" glyph-name="journal-disable" d="M768 896v-805.504l-256 256-256-256v805.504h512zM832 960h-640v-1024l320 320 320-320v1024z" />
<glyph unicode="&#xe6be;" glyph-name="journal" d="M192-64v1024h640v-1024l-320 320z" />
<glyph unicode="&#xe6c0;" glyph-name="info" d="M384 576h256v-640h-256v640zM640 832c0-70.692-57.308-128-128-128s-128 57.308-128 128c0 70.692 57.308 128 128 128s128-57.308 128-128z" />
<glyph unicode="&#xe6c1;" glyph-name="image" d="M0 960v-1024h1024v1024h-1024zM960 448l-192 192-256-384-192 192-256-320v768h896v-448zM352 544c70.656 0 128 57.344 128 128s-57.344 128-128 128-128-57.344-128-128 57.344-128 128-128z" />
<glyph unicode="&#xe6c2;" glyph-name="flag" d="M0 960h128v-1024h-128v1024zM192 896h832v-576h-832v576z" />
<glyph unicode="&#xe6c4;" glyph-name="eye-disable" d="M512 672c188.032 0 355.392-150.272 426.112-224-70.848-73.728-238.144-224-426.112-224s-355.328 150.272-426.112 224c70.848 73.728 238.144 224 426.112 224zM512 736c-282.752 0-512-288-512-288s229.248-288 512-288 512 288 512 288-229.248 288-512 288v0zM512 672c-106.048 0-192-85.952-192-192s85.952-192 192-192 192 85.952 192 192-85.952 192-192 192zM560 448c-44.224 0-80 35.904-80 80s35.776 80 80 80c44.224 0 80-35.904 80-80s-35.776-80-80-80z" />
<glyph unicode="&#xe6c5;" glyph-name="eye" d="M512 736c-282.752 0-512-288-512-288s229.248-288 512-288 512 288 512 288-229.248 288-512 288zM512 288c-106.048 0-192 85.952-192 192s85.952 192 192 192 192-85.952 192-192-85.952-192-192-192zM512 560c-44.16 0-80-35.84-80-80s35.84-80 80-80 80 35.84 80 80-35.84 80-80 80z" />
<glyph unicode="&#xe6c6;" glyph-name="envelope-add" d="M0 896v-768h512v64h-448v480l448-320 448 320v-224h64v448h-1024zM960 768l-448-320-448 320v64h896v-64zM896 384h-128v-128h-128v-128h128v-128h128v128h128v128h-128v128z" />
<glyph unicode="&#xe6c7;" glyph-name="envelope-new" d="M896 384h-128v-128h-128v-128h128v-128h128v128h128v128h-128v128zM512 352l-512 320v-544h518.464c-4.224 20.672-6.464 42.048-6.464 64 0 81.024 31.040 153.984 80.64 210.368l-80.64-50.368zM0 896v-128l512-320 512 320v128h-1024zM832 512c72.384 0 138.368-25.024 192-65.344v225.344l-276.096-172.608c26.816 7.36 54.784 12.608 84.096 12.608z" />
<glyph unicode="&#xe6c8;" glyph-name="envelope-disable" d="M1024 832h-1024v-768h1024v768zM960 768v-64l-448-320-448 320v64h896zM960 128h-896v480l448-320 448 320v-480z" />
<glyph unicode="&#xe6c9;" glyph-name="envelope" d="M0 608v-544h1024v544l-512-320-512 320zM0 832v-128l512-320 512 320v128h-1024z" />
<glyph unicode="&#xe6ca;" glyph-name="edit" d="M767.76 898.859l192.033-192.087-640.033-639.852-192.033 192.087 640.033 639.852zM64 192l192-192h-192z" />
<glyph unicode="&#xe6cb;" glyph-name="downloads" d="M960 256v-256h-896v256h-64v-320h1024v320zM896 512l-96 96-224-224v576h-128v-576l-224 224-96-96 384-384z" />
<glyph unicode="&#xe6cc;" glyph-name="download-disable" d="M576 448l192 192-64 64-128-128v384h-128v-384l-128 128-64-64 256-256 64 64zM896 576h-64l128-256h-357.696c3.52-9.984 5.824-20.608 5.824-31.872 0-52.992-43.008-96-96-96s-96 43.008-96 96c0 11.264 2.304 21.888 5.824 31.872h-357.952l128 256h-64l-128-256v-384h1024v384l-128 256zM960 0h-896v256h291.52c14.848-73.024 79.36-127.808 156.736-127.808s141.888 54.784 156.736 127.808h291.008v-256z" />
<glyph unicode="&#xe6cd;" glyph-name="download" d="M576 448l192 192-64 64-128-128v384h-128v-384l-128 128-64-64 256-256 64 64zM896 576h-64l128-256h-320c0-70.656-57.344-128-128-128s-128 57.344-128 128h-320l128 256h-64l-128-256v-384h1024v384l-128 256z" />
<glyph unicode="&#xe6ce;" glyph-name="dot" d="M1008 448c0-273.933-222.067-496-496-496s-496 222.067-496 496c0 273.933 222.067 496 496 496s496-222.067 496-496z" />
<glyph unicode="&#xe6cf;" glyph-name="direction" d="M829.76 755.52l-234.752-536.64-71.808 251.392 306.56 285.248zM1024 960l-1024-512 448-64 128-448 448 1024z" />
<glyph unicode="&#xe6d0;" glyph-name="diamond-disable" d="M512 960l-512-512 512-512 512 512-512 512zM192 448l320 320 320-320-320-320-320 320z" />
<glyph unicode="&#xe6d1;" glyph-name="diamond" d="M1.291 448.813l512.008 512.008 512.008-512.008-512.008-512.008-512.008 512.008z" />
<glyph unicode="&#xe6d2;" glyph-name="delete" d="M768 896v64h-512v-64h-192v-128h896v128h-192zM128 704v-768h768v768h-768zM352 64h-64v512h64v-512zM544 64h-64v512h64v-512zM736 64h-64v512h64v-512z" />
<glyph unicode="&#xe6d3;" glyph-name="danger" d="M384 960h256v-640h-256v640zM512 192c70.656 0 128-57.344 128-128s-57.344-128-128-128-128 57.344-128 128 57.344 128 128 128z" />
<glyph unicode="&#xe6d4;" glyph-name="create-layer" d="M512 811.392l-507.584-363.392 507.584-363.392 507.52 363.392-507.52 363.392zM512 186.816l-371.968 261.184 371.968 265.344 365.312-265.344-365.312-261.184z" />
<glyph unicode="&#xe6d5;" glyph-name="compass" d="M396.928 563.008c-125.76-125.76-137.664-313.152-138.112-321.152l-2.816-49.856 49.92 2.816c7.936 0.448 195.456 12.288 321.152 138.112 125.952 125.824 137.664 313.344 138.112 321.152l2.816 49.92-49.856-2.816c-8-0.448-195.392-12.352-321.216-138.176zM563.904 396.096c-63.936-63.872-116.416-18.88-116.416-18.88s-51.52 58.368 12.672 122.624c63.936 63.872 151.104 91.712 207.424 103.552-12.032-56.128-39.808-143.424-103.68-207.296zM512 928c-264.704 0-480-215.296-480-480s215.296-480 480-480c264.768 0 480 215.296 480 480s-215.232 480-480 480zM512 32c-229.376 0-416 186.624-416 416s186.624 416 416 416 416-186.624 416-416-186.624-416-416-416z" />
<glyph unicode="&#xe6d6;" glyph-name="cog" d="M925.504 448c0 63.872 39.232 114.24 98.496 148.864-10.624 35.648-24.768 69.76-42.112 101.952-66.368-17.344-120.128 8.64-165.248 53.76s-59.008 98.88-41.6 165.248c-32.128 17.408-66.24 31.488-101.888 42.176-34.752-59.2-97.28-98.496-161.152-98.496s-126.4 39.296-161.088 98.496c-35.648-10.688-69.76-24.768-101.888-42.176 17.344-66.368 3.584-120.064-41.6-165.248-45.184-45.12-98.944-71.168-165.312-53.824-17.344-32.064-31.488-66.24-42.112-101.888 59.2-34.624 98.496-84.992 98.496-148.864s-39.296-126.528-98.496-161.152c10.624-35.776 24.768-69.76 42.112-101.888 66.368 17.344 120.128 3.52 165.248-41.6 45.184-45.12 59.008-98.88 41.6-165.248 32.192-17.344 66.304-31.488 101.952-42.112 34.688 59.2 97.216 98.496 161.088 98.496s126.4-39.296 161.152-98.496c35.84 10.624 69.76 24.896 101.888 42.176-17.344 66.304-3.52 120.064 41.6 165.184s98.88 71.104 165.248 53.824c17.344 32.192 31.488 66.304 42.112 101.952-59.264 34.624-98.496 84.992-98.496 148.864zM512 225.344c-123.008 0-222.656 99.776-222.656 222.656 0 122.944 99.648 222.656 222.656 222.656s222.656-99.712 222.656-222.656-99.648-222.656-222.656-222.656z" />
<glyph unicode="&#xe6d7;" glyph-name="closed-folder" d="M960 64h-896v768h320l128-128h448z" />
<glyph unicode="&#xe6d8;" glyph-name="close" d="M896 704l-128 128-256-256-256 256-128-128 256-256-256-256 128-128 256 256 256-256 128 128-256 256z" />
<glyph unicode="&#xe6d9;" glyph-name="circle-disable" d="M512 768c176.448 0 320-143.552 320-320s-143.552-320-320-320-320 143.552-320 320 143.552 320 320 320zM512 864c-229.76 0-416-186.24-416-416s186.24-416 416-416 416 186.24 416 416-186.24 416-416 416v0z" />
<glyph unicode="&#xe6da;" glyph-name="circle" d="M928 448c0-229.75-186.25-416-416-416s-416 186.25-416 416c0 229.75 186.25 416 416 416s416-186.25 416-416z" />
<glyph unicode="&#xe6db;" glyph-name="check-list" d="M1024 416l-96 96-320-320-128 128-96-96 224-224 416 416zM0 896h1024v-128h-1024v128zM0 640h768v-128h-768v128zM0 384h320v-128h-320v128zM0 128h320v-128h-320v128z" />
<glyph unicode="&#xe6dc;" glyph-name="new-chatroom" d="M1024 256h-128v128h-128v-128h-128v-128h128v-128h128v128h128v128zM576 107.904c-20.928-2.752-42.176-4.48-64-4.48-66.432 0-130.048 12.736-189.184 38.144l-27.072 11.776-183.872-90.624 62.4 179.008-21.696 27.52c-49.856 63.232-76.16 137.6-76.16 214.848-0.064 209.344 195.392 380.032 435.584 380.032 117.76 0 228.096-40.512 310.72-114.048 80.64-71.552 124.864-166.208 124.864-266.304 0-12.032-0.96-23.872-2.112-35.648h64.128c1.024 11.904 1.984 23.616 1.984 35.648 0.128 245.248-223.616 444.352-499.648 444.352-275.904 0-499.648-198.976-499.648-444.224 0-94.592 33.024-182.208 89.856-254.464l-102.208-293.312 297.6 146.56c65.28-27.968 137.728-43.328 214.4-43.328 21.76 0 43.008 1.536 64 4.032v64.512z" />
<glyph unicode="&#xe6dd;" glyph-name="chatroom-new" d="M1024 256h-128v128h-128v-128h-128v-128h128v-128h128v128h128v128zM512 192c0 176.768 143.232 320 320 320 65.984 0 127.232-20.032 178.112-54.272 0.576 8.64 1.472 17.152 1.472 25.856 0.128 245.248-223.616 444.352-499.648 444.352-275.904 0-499.648-198.976-499.648-444.224 0-94.592 33.024-182.208 89.856-254.464l-102.208-293.312 297.6 146.56c65.28-27.968 137.728-43.328 214.4-43.328 13.312 0 26.432 0.896 39.488 1.728-24.32 45.376-39.424 96.256-39.424 151.104z" />
<glyph unicode="&#xe6de;" glyph-name="chat-icon" d="M512 928c-275.904 0-499.648-198.976-499.648-444.224 0-94.592 33.024-182.208 89.856-254.464l-102.208-293.312 297.6 146.56c65.28-27.968 137.728-43.328 214.4-43.328 275.904 0 499.648 198.976 499.648 444.352 0.128 245.312-223.68 444.416-499.648 444.416zM512 103.232c-66.432 0-130.048 12.864-189.184 38.144l-27.072 11.648-183.872-90.624 50.816 145.856 11.584 33.152-21.696 27.648c-49.856 63.232-76.16 137.472-76.16 214.848-0.064 209.472 195.392 380.096 435.584 380.096 117.76 0 228.096-40.512 310.72-114.048 80.64-71.552 124.864-166.208 124.864-266.304 0.064-209.792-195.392-380.416-435.584-380.416z" />
<glyph unicode="&#xe6df;" glyph-name="chatroom-disable" d="M512 928c-275.904 0-499.648-198.976-499.648-444.224 0-94.592 33.024-182.208 89.856-254.464l-102.208-293.312 297.6 146.56c65.28-27.968 137.728-43.328 214.4-43.328 275.904 0 499.648 198.976 499.648 444.352 0.128 245.312-223.68 444.416-499.648 444.416zM512 103.232c-66.432 0-130.048 12.864-189.184 38.144l-27.072 11.648-183.872-90.624 50.816 145.856 11.584 33.152-21.696 27.648c-49.856 63.232-76.16 137.472-76.16 214.848-0.064 209.472 195.392 380.096 435.584 380.096 117.76 0 228.096-40.512 310.72-114.048 80.64-71.552 124.864-166.208 124.864-266.304 0.064-209.792-195.392-380.416-435.584-380.416z" />
<glyph unicode="&#xe6e0;" glyph-name="chatroom" d="M512 928c-275.904 0-499.648-198.976-499.648-444.224 0-94.592 33.024-182.208 89.856-254.464l-102.208-293.312 297.6 146.56c65.28-27.968 137.728-43.328 214.4-43.328 275.904 0 499.648 198.976 499.648 444.352 0.128 245.312-223.68 444.416-499.648 444.416v0z" />
<glyph unicode="&#xe6e1;" glyph-name="calendar" d="M64 832v-832h896v832h-896zM896 64h-768v576h768v-576zM384 320h-192v-64h256v64h-64zM384 448h-192v-64h256v64h-64zM512 320h64v-64h-64v64zM512 448h64v-64h-64v64zM640 320h64v-64h-64v64zM640 448h64v-64h-64v64zM768 320h64v-64h-64v64zM384 192h-192v-64h256v64h-64zM512 192h64v-64h-64v64zM640 192h64v-64h-64v64zM768 192h64v-64h-64v64zM768 448h64v-64h-64v64zM384 576h-192v-64h256v64h-64zM512 576h64v-64h-64v64zM640 576h64v-64h-64v64zM768 576h64v-64h-64v64z" />
<glyph unicode="&#xe6e2;" glyph-name="attach" d="M940.352 473.28l-271.296-271.36c-62.656-62.592-164.288-62.592-226.88 0-62.464 62.528-56.832 183.616 5.824 246.144l256 256 64-64-256-256c-34.752-34.752-54.208-97.024-19.392-131.776 34.688-34.752 91.264-34.752 126.016 0l271.424 271.36c83.328 83.392 83.328 219.008 0 302.464s-219.072 83.392-302.464 0l-453.696-453.696c-83.328-83.392-83.328-219.008 0-302.592 83.392-83.392 219.072-83.392 302.4 0l0.256 0.128c-0.256-0.128 83.712-17.088 83.712-17.088l-33.408-33.408c-111.424-111.168-291.968-111.168-403.2 0-111.488 111.296-111.488 292.032 0 403.328l453.568 453.632c111.296 111.36 291.968 111.36 403.2 0 111.488-111.296 111.488-291.84-0.064-403.136z" />
<glyph unicode="&#xe6e3;" glyph-name="chevron-right" d="M384 832l-128-128 256-256-256-256 128-128 384 384z" />
<glyph unicode="&#xe6e4;" glyph-name="chevron-down" d="M896 576l-128 128-256-256-256 256-128-128 384-384z" />
<glyph unicode="&#xe6e5;" glyph-name="arrow" d="M576 832l-96-96 224-224h-640v-128h640l-224-224 96-96 384 384z" />
<glyph unicode="&#xe6e6;" glyph-name="altitude" d="M0 0l258.688 317.312 126.656-65.344 190.656 261.376 130.688-134.72 317.312 580.032v-958.656z" />
<glyph unicode="&#xe6e7;" glyph-name="ais" d="M529.216 148.864l202.752 557.696-456.256-354.944zM0 960v-1024h1024v1024h-1024zM830.080 789.056l-256-704c-3.52-9.664-11.52-17.088-21.44-19.904-2.816-0.768-5.76-1.152-8.64-1.152-7.168 0-14.272 2.432-20.032 6.976l-320 256c-7.616 6.144-12.032 15.488-11.968 25.28 0.064 9.728 4.608 19.008 12.352 25.024l576 448c11.2 8.832 26.88 8.96 38.464 0.64 11.584-8.448 16.128-23.488 11.264-36.864z" />
<glyph unicode="&#xe6e8;" glyph-name="aco" d="M352 748.48l136.576-236.48h-273.152l136.576 236.48zM1024 960v-1024h-1024v1024h1024zM160 448h384c11.456 0 22.016 6.144 27.712 16 5.76 9.856 5.76 22.144 0 32l-192 332.48c-11.392 19.776-44.032 19.776-55.36 0l-192-332.48c-5.76-9.856-5.76-22.144 0-32 5.632-9.856 16.192-16 27.648-16zM928 224c0 105.856-86.144 192-192 192s-192-86.144-192-192 86.144-192 192-192 192 86.144 192 192zM736 352c-70.592 0-128-57.408-128-128s57.408-128 128-128 128 57.408 128 128-57.408 128-128 128z" />
<glyph unicode="&#xe900;" glyph-name="read-receipt-seen" d="M460.8 172.8l-172.8 179.2 64 64 83.2-76.8 160 320 89.6-38.4zM0 960v-384h128v-640h64v64h64v-64h64v64h64v-64h64v64h64v-64h64v64h64v-64h64v64h64v-64h64v640h128v384h-960zM192 64v704h576v-704h-576z" />
<glyph unicode="&#xe901;" glyph-name="collapse-all" d="M448 512l-192-192 64-64 128 128v-320h128v320l128-128 64 64-256 256zM960 640v-640h-896v640h896zM1024 704h-1024v-768h1024v768zM0 960h1024v-64h-1024v64zM0 832h1024v-64h-1024v64z" />
<glyph unicode="&#xe902;" glyph-name="expand-all" d="M576 128l192 192-64 64-128-128v320h-128v-320l-128 128-64-64 256-256zM960 640v-640h-896v640h896zM1024 704h-1024v-768h1024v768zM0 960h1024v-64h-1024v64zM0 832h1024v-64h-1024v64z" />
<glyph unicode="&#xe903;" glyph-name="repeat" d="M192 576h576v-128l256 192-256 192v-128h-576c-108.8 0-192-83.2-192-192h128c0 38.4 25.6 64 64 64zM832 320h-576v128l-256-192 256-192v128h576c108.8 0 192 83.2 192 192h-128c0-38.4-25.6-64-64-64z" />
<glyph unicode="&#xe904;" glyph-name="comment" d="M512 928c-275.2 0-499.2-198.4-499.2-441.6 0-96 32-179.2 89.6-256l-102.4-294.4 300.8 147.2c64-25.6 140.8-44.8 211.2-44.8 275.2 0 499.2 198.4 499.2 441.6 0 249.6-224 448-499.2 448zM448 454.4c0-140.8-64-224-185.6-236.8 0 0 0 0 0 0s0 0-6.4 0c0 0 0 0 0 6.4v70.4c0 0 0 6.4 0 6.4 57.6 32 83.2 76.8 89.6 147.2h-83.2c0 0-6.4 0-6.4 6.4v179.2c0 0 0 6.4 6.4 6.4h179.2c0 0 6.4 0 6.4-6.4v-179.2zM768 454.4c0-140.8-64-224-185.6-236.8 0 0 0 0 0 0s0 0-6.4 0c0 0 0 0 0 6.4v70.4c0 0 0 6.4 0 6.4 57.6 32 83.2 76.8 89.6 147.2h-83.2c0 0-6.4 0-6.4 6.4v179.2c0 0 0 6.4 6.4 6.4h179.2c0 0 6.4 0 6.4-6.4v-179.2z" />
<glyph unicode="&#xe905;" glyph-name="new-from-existing-plan" d="M960 192h-128v128h-128v-128h-128v-128h128v-128h128v128h128zM704 960h-576v-1024h384c-38.4 51.2-64 121.6-64 192 0 19.2 0 44.8 6.4 64h-134.4v64h153.6c12.8 25.6 25.6 44.8 38.4 64h-192v64h256c51.2 38.4 121.6 64 192 64 44.8 0 89.6-12.8 128-25.6v345.6l-192 192zM704 448h-384v64h384v-64zM704 576h-384v64h384v-64z" />
<glyph unicode="&#xe906;" glyph-name="read-receipt" d="M320 640h320v-64h-320v64zM320 512h320v-64h-320v64zM320 384h320v-64h-320v64zM320 256h192v-64h-192v64zM0 960v-384h128v-640h64v64h64v-64h64v64h64v-64h64v64h64v-64h64v64h64v-64h64v64h64v-64h64v640h128v384h-960zM192 64v704h576v-704h-576z" />
<glyph unicode="&#xe907;" glyph-name="export-to-map" d="M672 896l-320-192-352 192v-704l115.2-64-64-128 115.2-57.6 64 121.6 128-70.4 320 192 352-192v704l-358.4 198.4zM640 249.6l-256-160-25.6-12.8-102.4 51.2 83.2 153.6 115.2-57.6-51.2 313.6-288-134.4 115.2-57.6-83.2-160-83.2 44.8v556.8l256-134.4 38.4-19.2 25.6 19.2 256 160v-563.2zM960 115.2l-256 134.4v556.8l256-134.4v-556.8z" />
<glyph unicode="&#xe908;" glyph-name="popup" d="M832 768v-320l-128 128-192-192-64 64 192 192-128 128zM960 896v-576h-576v576h576zM1024 960h-704v-704h704v704zM640 192v-192h-576v576h192v64h-256v-704h704v256z" />
<glyph unicode="&#xe909;" glyph-name="sound" d="M512 128c0-19.2-12.8-32-25.6-44.8-6.4 0-12.8-6.4-19.2-6.4-12.8 0-19.2 6.4-32 12.8l-256 224h-134.4c-25.6 0-44.8 19.2-44.8 44.8v160c0 25.6 19.2 44.8 44.8 44.8h134.4l256 217.6c12.8 12.8 32 12.8 51.2 6.4s25.6-25.6 25.6-44.8v-614.4zM691.2 204.8c0 0 0 0 0 0-12.8 0-25.6 6.4-38.4 12.8l-6.4 6.4c-19.2 19.2-19.2 44.8-6.4 57.6 32 44.8 51.2 102.4 51.2 160 0 64-19.2 121.6-57.6 172.8-12.8 19.2-12.8 44.8 6.4 64l6.4 6.4c6.4 6.4 19.2 12.8 38.4 12.8 12.8 0 25.6-6.4 32-19.2 57.6-64 83.2-147.2 83.2-236.8 0-83.2-25.6-160-76.8-224-6.4-6.4-19.2-12.8-32-12.8zM883.2 57.6c-6.4-12.8-19.2-12.8-32-19.2 0 0 0 0 0 0-12.8 0-25.6 6.4-32 12.8l-6.4 6.4c-19.2 19.2-19.2 44.8 0 64 76.8 89.6 115.2 204.8 115.2 320 0 121.6-44.8 236.8-121.6 326.4-19.2 19.2-12.8 44.8 0 64l6.4 6.4c6.4 6.4 19.2 12.8 32 12.8s25.6-6.4 32-12.8c96-108.8 153.6-249.6 153.6-396.8-6.4-140.8-57.6-275.2-147.2-384z" />
<glyph unicode="&#xe90a;" glyph-name="point2" d="M780.8 684.8c0 147.2-121.6 268.8-268.8 268.8s-268.8-121.6-268.8-268.8c0-211.2 268.8-524.8 268.8-524.8s268.8 313.6 268.8 524.8zM377.6 704c0 70.4 57.6 134.4 134.4 134.4 70.4 0 134.4-57.6 134.4-134.4 0-70.4-57.6-134.4-134.4-134.4-70.4 0-134.4 57.6-134.4 134.4zM576 704c0-35.346-28.654-64-64-64s-64 28.654-64 64c0 35.346 28.654 64 64 64s64-28.654 64-64zM665.6 256c-19.2-32-44.8-57.6-57.6-83.2 166.4-12.8 281.6-44.8 320-76.8-51.2-32-192-76.8-416-76.8s-364.8 44.8-416 76.8c38.4 25.6 153.6 64 320 76.8-19.2 19.2-38.4 51.2-57.6 83.2-211.2-19.2-358.4-83.2-358.4-153.6 0-89.6 230.4-160 512-160s512 70.4 512 160c0 70.4-153.6 128-358.4 153.6z" />
<glyph unicode="&#xe90b;" glyph-name="calibrate" d="M441.6 422.4l-313.6 64 691.2 281.6-345.6-665.6zM0 960v-384h64v320h320v64zM0-64h384v64h-320v320h-64zM1024-64v384h-64v-320h-320v-64zM1024 960h-384v-64h320v-320h64z" />
<glyph unicode="&#xe90c;" glyph-name="pause" d="M64 896h320v-896h-320v896zM576 896h320v-896h-320v896z" />
<glyph unicode="&#xe90d;" glyph-name="stop" d="M64 896h896v-896h-896v896z" />
<glyph unicode="&#xe90e;" glyph-name="users" d="M454.4 467.2c6.4 32 6.4 57.6 6.4 96s0 83.2-25.6 121.6c19.2-32 25.6-76.8 25.6-121.6 0-32-6.4-64-6.4-96zM288 742.4v0c-115.2 0-153.6-44.8-166.4-102.4 19.2 57.6 57.6 102.4 166.4 102.4zM249.6 217.6c0 0 6.4 0 6.4 0v0c0 0-6.4 0-6.4 0zM435.2 684.8c-6.4 6.4-12.8 19.2-19.2 25.6 6.4-12.8 12.8-19.2 19.2-25.6zM121.6 608c0 12.8 0 19.2 6.4 32-6.4-6.4-6.4-19.2-6.4-32zM582.4 480c0-19.2 0-44.8 0-44.8s32-32 96-32c57.6 0 96 32 96 32s0 25.6 0 44.8c0 12.8 38.4 57.6 51.2 102.4 19.2 44.8 25.6 102.4 25.6 172.8 0 83.2-6.4 179.2-172.8 179.2-160 0-172.8-96-172.8-179.2 0-70.4 6.4-128 25.6-172.8 12.8-44.8 51.2-83.2 51.2-102.4zM288 211.2v0c57.6 0 96 32 96 32s0 12.8 0 32c0-12.8 0-32 0-32s-32-32-96-32zM704 38.4c0 0 0 12.8-6.4 32 6.4-19.2 6.4-32 6.4-32v0zM140.8 204.8c-12.8 6.4-19.2 19.2-25.6 19.2 6.4 0 12.8-6.4 25.6-19.2zM288 153.6v0c-12.8 0-25.6 0-32 0v0c12.8 0 19.2 0 32 0zM460.8 230.4v0c0 0-12.8-19.2-44.8-38.4 32 19.2 44.8 38.4 44.8 38.4zM652.8 128c-25.6 12.8-51.2 32-83.2 51.2 32-19.2 64-38.4 83.2-51.2v0zM460.8 230.4v0c0 0 51.2-25.6 108.8-57.6-51.2 32-108.8 57.6-108.8 57.6zM364.8 166.4c-19.2-6.4-44.8-12.8-76.8-12.8v0c32 0 51.2 6.4 76.8 12.8zM435.2 390.4c0 0 0 0 0 0v0c0 0 0 0 0 0zM384 275.2c0 6.4 0 12.8 0 12.8 0 12.8 19.2 38.4 38.4 70.4-19.2-32-38.4-57.6-38.4-70.4 0 0 0-6.4 0-12.8zM435.2 684.8c-6.4 6.4-12.8 19.2-19.2 25.6-12.8 12.8-25.6 19.2-51.2 25.6-19.2 6.4-44.8 6.4-76.8 6.4-115.2 0-153.6-44.8-166.4-102.4 0-12.8-6.4-19.2-6.4-32s0-32 0-44.8c0-70.4 6.4-128 25.6-172.8 12.8-44.8 51.2-83.2 51.2-102.4s0-44.8 0-44.8 19.2-19.2 51.2-25.6c0 0 6.4 0 6.4 0 12.8 0 19.2-6.4 32-6.4 57.6 0 96 32 96 32s0 12.8 0 32c0 6.4 0 12.8 0 12.8 0 12.8 19.2 38.4 38.4 70.4 6.4 12.8 12.8 19.2 12.8 32 0 0 0 0 0 0 6.4 25.6 12.8 51.2 19.2 76.8 6.4 32 6.4 57.6 6.4 96 6.4 38.4 0 83.2-19.2 121.6zM256 217.6c12.8 0 19.2-6.4 32-6.4v0c-12.8 0-19.2 6.4-32 6.4v0zM1024 326.4c-64 44.8-179.2 96-179.2 96s-64-83.2-172.8-83.2c-108.8 0-172.8 83.2-172.8 83.2s-12.8-6.4-25.6-12.8c0-12.8-6.4-19.2-12.8-32-6.4-25.6-25.6-51.2-38.4-70.4-6.4-6.4-12.8-19.2-12.8-25.6 0-19.2 0-44.8 0-44.8v-12.8c12.8 12.8 25.6 19.2 25.6 25.6l12.8 19.2 25.6-12.8c6.4 0 140.8-64 198.4-108.8 6.4-6.4 19.2-12.8 25.6-19.2v0-6.4c12.8-19.2 32-44.8 32-51.2s0-32 0-32v-102.4h288v390.4zM704 38.4c0 0 0 12.8-6.4 32 0 6.4 0 6.4-6.4 12.8-6.4 12.8-19.2 25.6-32 38.4 0 0-6.4 0-6.4 6.4-25.6 12.8-51.2 32-83.2 51.2-57.6 32-108.8 57.6-108.8 57.6s-12.8-19.2-44.8-38.4c-12.8-12.8-32-19.2-57.6-25.6-19.2-6.4-44.8-12.8-76.8-12.8-12.8 0-25.6 0-32 0-12.8 0-25.6 6.4-38.4 6.4-32 12.8-57.6 25.6-76.8 44.8-12.8 6.4-19.2 19.2-25.6 19.2 0 0 0 6.4 0 6.4s-51.2-25.6-108.8-51.2c0 0-6.4 0-6.4-6.4v-236.8h704l6.4 96z" />
<glyph unicode="&#xe90f;" glyph-name="overlay-folder" d="M390.4 505.6h38.4v-38.4h-38.4v38.4zM473.6 505.6h38.4v-38.4h-38.4v38.4zM390.4 422.4h38.4v-38.4h-38.4v38.4zM512 384h38.4v-38.4h-38.4v38.4zM512 460.8h38.4v-38.4h-38.4v38.4zM473.6 422.4h38.4v-38.4h-38.4v38.4zM588.8 460.8h38.4v-38.4h-38.4v38.4zM588.8 300.8h38.4v-38.4h-38.4v38.4zM588.8 384h38.4v-38.4h-38.4v38.4zM633.6 665.6h-403.2v-403.2h121.6v281.6h281.6zM428.8 300.8h38.4v-38.4h-38.4v38.4zM512 300.8h38.4v-38.4h-38.4v38.4zM390.4 345.6h38.4v-38.4h-38.4v38.4zM550.4 505.6h38.4v-38.4h-38.4v38.4zM473.6 345.6h38.4v-38.4h-38.4v38.4zM428.8 384h38.4v-38.4h-38.4v38.4zM550.4 345.6h38.4v-38.4h-38.4v38.4zM672 224h-281.6v-121.6h403.2v403.2h-121.6zM550.4 422.4h38.4v-38.4h-38.4v38.4zM448 768l-128 128h-320v-896h1024v768h-576zM832 64h-480v160h-160v480h480v-160h160v-480zM428.8 460.8h38.4v-38.4h-38.4v38.4z" />
<glyph unicode="&#xe910;" glyph-name="overlay" d="M768 704v256h-768v-768h256v-256h768v768h-256zM64 256v640h640v-192h-448v-448h-192zM704 448v-64h-64v-64h64v-64h-64v64h-64v-64h-64v64h-64v-64h-64v64h-64v64h64v64h-64v64h64v64h-64v64h64v-64h64v64h64v-64h64v64h64v-64h64v-64h-64v-64h64zM960 0h-640v192h448v448h192v-640zM448 576h64v-64h-64v64zM576 576h64v-64h-64v64zM384 512h64v-64h-64v64zM448 448h64v-64h-64v64zM512 512h64v-64h-64v64zM576 448h64v-64h-64v64zM384 384h64v-64h-64v64zM512 384h64v-64h-64v64z" />
<glyph unicode="&#xe911;" glyph-name="sound-off" d="M512 128c0-19.2-12.8-32-25.6-44.8-6.4 0-12.8-6.4-19.2-6.4-12.8 0-19.2 6.4-32 12.8l-256 224h-134.4c-25.6 0-44.8 19.2-44.8 44.8v160c0 25.6 19.2 44.8 44.8 44.8h134.4l256 217.6c12.8 12.8 32 12.8 51.2 6.4s25.6-25.6 25.6-44.8v-614.4zM1024 576l-64 64-128-128-128 128-64-64 128-128-128-128 64-64 128 128 128-128 64 64-128 128z" />
<glyph unicode="&#xe912;" glyph-name="bell-off" d="M326.4 64c25.6-76.8 96-128 172.8-128s140.8 51.2 172.8 128h-345.6zM889.6 224c-19.2 19.2-32 44.8-32 89.6v204.8c0 160-108.8 313.6-275.2 352 0 0-6.4 83.2-83.2 83.2-83.2 0-83.2-76.8-83.2-76.8-44.8-12.8-83.2-32-115.2-57.6l588.8-595.2zM160 640c-12.8-38.4-19.2-76.8-19.2-121.6v-198.4c0-96-64-115.2-140.8-192h678.4l-518.4 512zM0.58 896.313l63.356 63.356 959.393-959.393-63.356-63.356-959.393 959.393z" />
<glyph unicode="&#xe913;" glyph-name="notifications-off" d="M0.58 896.313l63.356 63.356 959.393-959.393-63.356-63.356-959.393 959.393zM256 384h166.4l-64 64h-102.4zM832 448h-166.4l64-64h102.4zM409.6 704h198.4l19.2 25.6 76.8 115.2 76.8-115.2 19.2-25.6h160v-550.4l64-64v678.4h-192l-128 192-128-192h-230.4zM601.6 512h230.4v64h-294.4zM678.4 128h-550.4v550.4l-89.6 89.6h-38.4v-704h742.4zM294.4 512l-38.4 38.4v-38.4zM486.4 320h-230.4v-64h294.4z" />
<glyph unicode="&#xe914;" glyph-name="notifications" d="M832 704l-128 192-128-192h-576v-704h1024v704h-192zM960 64h-832v576h480l19.2 25.6 76.8 115.2 76.8-115.2 19.2-25.6h160v-576zM256 512h576v-64h-576v64zM256 384h576v-64h-576v64zM256 256h448v-64h-448v64z" />
<glyph unicode="&#xe915;" glyph-name="power" d="M320-64l192 576h-320l192 448h320l-128-256h320l-576-768z" />
<glyph unicode="&#xe916;" glyph-name="brigade" d="M640 64l-64 140.8c-32 51.2-51.2 89.6-70.4 134.4v0c-12.8-44.8-38.4-83.2-57.6-140.8l-64-140.8h-204.8l224 390.4-211.2 384h198.4l70.4-140.8c25.6-44.8 38.4-83.2 57.6-128v0c19.2 51.2 32 83.2 51.2 128l64 140.8h198.4l-217.6-377.6 230.4-390.4h-204.8z" />
<glyph unicode="&#xe917;" glyph-name="team" d="M185.6 64l64 96c-70.4 70.4-108.8 172.8-108.8 288 0 224 147.2 396.8 371.2 396.8 64 0 121.6-12.8 172.8-38.4l64 89.6 96-64-64-96c70.4-70.4 102.4-172.8 102.4-281.6 0-249.6-153.6-403.2-371.2-403.2-57.6 0-115.2 12.8-166.4 38.4l-70.4-102.4-89.6 76.8zM601.6 684.8c-25.6 19.2-51.2 32-89.6 32-121.6 0-192-115.2-192-262.4 0-51.2 6.4-96 32-140.8v0l249.6 371.2zM428.8 217.6c19.2-19.2 51.2-25.6 83.2-25.6 121.6 0 192 108.8 192 262.4 0 44.8-6.4 83.2-25.6 128h-6.4l-243.2-364.8z" />
<glyph unicode="&#xe918;" glyph-name="regiment" d="M64 832h192v-768h-192v768zM448 832h192v-768h-192v768zM832 832h192v-768h-192v768z" />
<glyph unicode="&#xe919;" glyph-name="battalion" d="M256 832h192v-768h-192v768zM640 832h192v-768h-192v768z" />
<glyph unicode="&#xe91a;" glyph-name="company" d="M448 832h192v-768h-192v768z" />
<glyph unicode="&#xe91b;" glyph-name="platoon" d="M128 320v0c-70.4 0-128 57.6-128 128v0c0 70.4 57.6 128 128 128v0c70.4 0 128-57.6 128-128v0c0-70.4-57.6-128-128-128zM512 320v0c-70.4 0-128 57.6-128 128v0c0 70.4 57.6 128 128 128v0c70.4 0 128-57.6 128-128v0c0-70.4-57.6-128-128-128zM896 320v0c-70.4 0-128 57.6-128 128v0c0 70.4 57.6 128 128 128v0c70.4 0 128-57.6 128-128v0c0-70.4-57.6-128-128-128z" />
<glyph unicode="&#xe91c;" glyph-name="section" d="M320 320v0c-70.4 0-128 57.6-128 128v0c0 70.4 57.6 128 128 128v0c70.4 0 128-57.6 128-128v0c0-70.4-57.6-128-128-128zM704 320v0c-70.4 0-128 57.6-128 128v0c0 70.4 57.6 128 128 128v0c70.4 0 128-57.6 128-128v0c0-70.4-57.6-128-128-128z" />
<glyph unicode="&#xe91d;" glyph-name="squad" d="M512 320v0c-70.4 0-128 57.6-128 128v0c0 70.4 57.6 128 128 128v0c70.4 0 128-57.6 128-128v0c0-70.4-57.6-128-128-128z" />
<glyph unicode="&#xe91e;" glyph-name="secure-gps" d="M979.2 659.2v64c0 102.4-83.2 179.2-179.2 179.2-102.4 0-179.2-83.2-179.2-179.2v-64h-44.8v-339.2h448v339.2h-44.8zM691.2 723.2c0 64 51.2 115.2 115.2 115.2s115.2-51.2 115.2-115.2v-64h-224v64zM832 409.6h-64l6.4 89.6c-6.4 12.8-12.8 25.6-12.8 38.4 0 25.6 19.2 38.4 38.4 38.4 25.6 0 38.4-19.2 38.4-38.4 0-12.8-6.4-25.6-19.2-32l12.8-96zM512 256v364.8l-128 339.2-384-1024 384 256 384-256-121.6 320z" />
<glyph unicode="&#xe91f;" glyph-name="clear-to-fire" d="M275.2 384l-224-224c-6.4-6.4-6.4-25.6 0-32l70.4-64h-83.2c-19.2 0-38.4-19.2-38.4-38.4v-89.6h390.4v76.8c0 19.2-19.2 38.4-38.4 38.4h-70.4l160 160-166.4 172.8zM1004.8 6.4l-339.2 332.8c6.4 25.6 0 57.6-19.2 76.8l364.8 364.8c6.4 6.4 6.4 25.6 0 32l-134.4 128c-6.4 6.4-25.6 6.4-32 0l-518.4-512 166.4-166.4 44.8 44.8c19.2-19.2 51.2-25.6 76.8-19.2l275.2-275.2h-19.2c-19.2 0-38.4-19.2-38.4-38.4v-38.4c0 0 0 0 0 0h192c0 0 0 0 0 0v38.4c0 12.8-6.4 25.6-19.2 32z" />
<glyph unicode="&#xe920;" glyph-name="rounds-complete" d="M371.2 38.4v595.2c0 19.2-12.8 38.4-32 38.4v70.4c0 76.8-64 217.6-140.8 217.6v0c-76.8 0-140.8-134.4-140.8-217.6v-70.4c-25.6 0-38.4-19.2-38.4-38.4v-595.2c-6.4-12.8-19.2-32-19.2-44.8 0-32 25.6-57.6 57.6-57.6h281.6c32 0 57.6 25.6 57.6 57.6-6.4 19.2-12.8 32-25.6 44.8v0zM76.8 57.6v531.2c0 12.8 12.8 25.6 25.6 25.6s25.6-12.8 25.6-25.6v-537.6c0-12.8-12.8-25.6-25.6-25.6-12.8 6.4-25.6 12.8-25.6 32v0zM1024 569.6l-70.4 70.4-288-288-147.2 140.8-70.4-70.4 217.6-217.6z" />
<glyph unicode="&#xe921;" glyph-name="shot" d="M371.2 38.4v595.2c0 19.2-12.8 38.4-32 38.4v70.4c0 76.8-64 217.6-140.8 217.6v0c-76.8 0-140.8-134.4-140.8-217.6v-70.4c-25.6 0-38.4-19.2-38.4-38.4v-595.2c-6.4-12.8-19.2-32-19.2-44.8 0-32 25.6-57.6 57.6-57.6h281.6c32 0 57.6 25.6 57.6 57.6-6.4 19.2-12.8 32-25.6 44.8v0zM76.8 57.6v531.2c0 12.8 12.8 25.6 25.6 25.6s25.6-12.8 25.6-25.6v-537.6c0-12.8-12.8-25.6-25.6-25.6-12.8 6.4-25.6 12.8-25.6 32v0zM915.2 377.6l64 38.4-64 38.4 102.4 102.4c6.4 6.4 0 25.6-12.8 19.2h-115.2v102.4c0 12.8-12.8 19.2-19.2 12.8l-76.8-51.2-38.4 185.6c0 12.8-19.2 12.8-25.6 0l-76.8-166.4-102.4 83.2c-6.4 6.4-19.2 0-19.2-12.8l38.4-160-102.4-19.2c-12.8 0-12.8-12.8-6.4-19.2l70.4-57.6-64-51.2 64-51.2-70.4-57.6c-6.4-6.4-6.4-19.2 6.4-19.2l96-19.2-38.4-160c0-12.8 12.8-19.2 19.2-12.8l115.2 83.2 76.8-166.4c6.4-12.8 19.2-6.4 25.6 0l38.4 185.6 76.8-51.2c6.4-6.4 19.2 0 19.2 12.8v102.4l121.6-6.4c12.8 0 19.2 12.8 12.8 19.2l-115.2 96zM812.8 332.8v-70.4l-51.2 32-25.6-121.6-51.2 108.8-76.8-51.2 25.6 102.4-64 12.8 44.8 38.4-32 32 32 25.6-44.8 44.8 64 12.8-19.2 102.4 76.8-51.2 51.2 108.8 25.6-121.6 51.2 32v-70.4l83.2 6.4-70.4-70.4 32-19.2-32-19.2 70.4-70.4-89.6 6.4z" />
<glyph unicode="&#xe922;" glyph-name="pinned" d="M256 896l64-64v-320l-128-192h256v-384h64v384h256l-128 192v320l64 64v64h-448z" />
<glyph unicode="&#xe923;" glyph-name="unpinned" d="M960 704l-64-64h-320l-192 128v-256h-384v-64h384v-256l192 128h320l64-64h64v448z" />
<glyph unicode="&#xe924;" glyph-name="gps" d="M512 192l-384-256 384 1024 384-1024z" />
<glyph unicode="&#xe925;" glyph-name="cease-loading" d="M736 704c-160 0-288-128-288-288s128-288 288-288 288 128 288 288-128 288-288 288zM518.4 416c0 121.6 96 217.6 217.6 217.6 44.8 0 89.6-12.8 128-38.4l-300.8-300.8c-25.6 32-44.8 76.8-44.8 121.6zM736 198.4c-44.8 0-89.6 12.8-128 38.4l300.8 300.8c25.6-38.4 38.4-76.8 38.4-128 6.4-115.2-89.6-211.2-211.2-211.2zM371.2 38.4v595.2c0 19.2-12.8 38.4-32 38.4v70.4c0 76.8-64 217.6-140.8 217.6v0c-76.8 0-140.8-134.4-140.8-217.6v-70.4c-25.6 0-38.4-19.2-38.4-38.4v-595.2c-6.4-12.8-19.2-32-19.2-44.8 0-32 25.6-57.6 57.6-57.6h281.6c32 0 57.6 25.6 57.6 57.6-6.4 19.2-12.8 32-25.6 44.8v0zM76.8 57.6v531.2c0 12.8 12.8 25.6 25.6 25.6s25.6-12.8 25.6-25.6v-537.6c0-12.8-12.8-25.6-25.6-25.6-12.8 6.4-25.6 12.8-25.6 32v0z" />
<glyph unicode="&#xe926;" glyph-name="fire-for-effect" d="M908.8 38.4v595.2c0 19.2-12.8 38.4-32 38.4v70.4c0 76.8-64 217.6-140.8 217.6v0c-76.8 0-140.8-134.4-140.8-217.6v-70.4c-19.2 0-38.4-19.2-38.4-38.4v-595.2c-12.8-12.8-19.2-25.6-19.2-44.8 0-32 25.6-57.6 57.6-57.6h281.6c32 0 57.6 25.6 57.6 57.6 0 19.2-6.4 32-25.6 44.8v0zM620.8 57.6v531.2c0 12.8 12.8 25.6 25.6 25.6s25.6-12.8 25.6-25.6v-537.6c0-12.8-12.8-25.6-25.6-25.6-12.8 6.4-25.6 12.8-25.6 32v0zM460.8 38.4v595.2c0 19.2-12.8 38.4-32 38.4v70.4c0 76.8-64 217.6-140.8 217.6v0c-76.8 0-140.8-134.4-140.8-217.6v-70.4c-19.2 0-38.4-19.2-38.4-38.4v-595.2c-12.8-12.8-19.2-25.6-19.2-44.8 0-32 25.6-57.6 57.6-57.6h281.6c32 0 57.6 25.6 57.6 57.6 0 19.2-6.4 32-25.6 44.8v0zM172.8 57.6v531.2c0 12.8 12.8 25.6 25.6 25.6s25.6-12.8 25.6-25.6v-537.6c0-12.8-12.8-25.6-25.6-25.6-12.8 6.4-25.6 12.8-25.6 32v0z" />
<glyph unicode="&#xe927;" glyph-name="fire" d="M684.8 38.4v595.2c0 19.2-12.8 38.4-32 38.4v70.4c0 83.2-64 217.6-140.8 217.6v0c-76.8 0-140.8-134.4-140.8-217.6v-70.4c-19.2 0-38.4-19.2-38.4-38.4v-595.2c-12.8-12.8-19.2-25.6-19.2-44.8 0-32 25.6-57.6 57.6-57.6h281.6c32 0 57.6 25.6 57.6 57.6 0 19.2-6.4 32-25.6 44.8v0zM396.8 57.6v531.2c0 12.8 12.8 25.6 25.6 25.6 12.8 6.4 25.6-6.4 25.6-25.6v-537.6c0-12.8-12.8-25.6-25.6-25.6-12.8 6.4-25.6 12.8-25.6 32v0z" />
</font>
</defs>
</svg>
